<?xml version="1.0" standalone="no"?>
<!DOCTYPE svg PUBLIC "-//W3C//DTD SVG 1.1//EN" "http://www.w3.org/Graphics/SVG/1.1/DTD/svg11.dtd" >
<svg xmlns="http://www.w3.org/2000/svg">
<metadata></metadata>
<defs>
<font id="cinzelblack" horiz-adv-x="1228" >
<font-face units-per-em="2048" ascent="1638" descent="-410" />
<missing-glyph horiz-adv-x="512" />
<glyph horiz-adv-x="2048" />
<glyph horiz-adv-x="2048" />
<glyph unicode="&#xd;" horiz-adv-x="2048" />
<glyph unicode=" "  horiz-adv-x="512" />
<glyph unicode="&#x09;" horiz-adv-x="512" />
<glyph unicode="&#xa0;" horiz-adv-x="512" />
<glyph unicode="!" horiz-adv-x="604" d="M92 1437h420l-46 -694l-93 -272h-143l-92 272zM113 156q0 76 53.5 130t130.5 54t131 -54t54 -130t-54 -130.5t-131 -54.5q-76 0 -130 54t-54 131z" />
<glyph unicode="&#x22;" horiz-adv-x="806" d="M61 1035q53 135 65 211t-4 188l268 28q2 -35 -5 -79.5t-27.5 -99.5t-52.5 -104t-86.5 -91.5t-122.5 -63.5zM417 1035q53 135 64.5 211.5t-4.5 187.5l269 28q2 -35 -5 -79.5t-27.5 -99.5t-52.5 -104t-86.5 -91.5t-122.5 -63.5z" />
<glyph unicode="#" d="M41 444v123h241l58 328h-209v123h231l73 416h127l-73 -416h282l74 416h127l-74 -416h220v-123h-241l-58 -328h209v-123h-231l-78 -444h-127l78 444h-282l-79 -444h-127l79 444h-220zM409 567h283l58 328h-283z" />
<glyph unicode="$" horiz-adv-x="1259" d="M81 302.5q22 120.5 75 189.5h18q-10 -157 98 -278t294 -138l36 465l-246 114q-140 65 -205 179.5t-46 261.5q22 177 146 271.5t331 94.5q54 0 90 -2l12 154l99 -2l-12 -158q110 -8 156 -13h160l-44 -333h-20q-1 100 -70 166.5t-190 81.5l-32 -420l251 -116 q120 -55 183.5 -155t53.5 -243q-14 -203 -160.5 -318.5t-401.5 -130.5l-14 -182l-98 6l13 174q-164 1 -288 39t-179 94q-32 78 -10 198.5zM418 1188q-5 -66 41.5 -108t140.5 -84l35 -16l29 379q-110 -7 -175 -53t-71 -118zM665 76q118 10 180 66t62 133q0 64 -49 116.5 t-161 105.5z" />
<glyph unicode="%" horiz-adv-x="1591" d="M47 1120q24 161 136 251.5t287 90.5h2q72 1 129 -13.5t87.5 -32.5t70 -34.5t79.5 -19.5t85 8t67 20t72 35t52 27l81 -35l-763 -1456l-92 39l708 1338q-94 -61 -212 -46q-47 7 -92 23q42 -85 28 -215q-19 -170 -132.5 -265.5t-298.5 -95.5q-165 0 -242.5 101t-51.5 280z M323 895q12 -74 52 -74q49 1 84.5 74.5t50.5 202.5q16 134 2.5 208t-52.5 74q-43 0 -77 -74t-53 -206q-19 -131 -7 -205zM787 352q24 161 135.5 251.5t286.5 90.5q158 0 238 -95.5t65 -266.5q-15 -170 -129 -265.5t-303 -95.5q-165 0 -242.5 101t-50.5 280zM1049 127 q12 -74 51 -74q49 0 84.5 73t51.5 204q16 134 3 208t-53 74q-43 0 -77 -74t-53 -206q-19 -131 -7 -205z" />
<glyph unicode="&#x26;" horiz-adv-x="1865" d="M51 432q0 81 28.5 148t77.5 112t103 74t116 46q-87 142 -87 276q0 82 33 148t86.5 107.5t126.5 69t148.5 38.5t156.5 11q145 0 269 -36t172 -109l-97 -334h-19q-4 377 -237 377q-93 0 -151 -58t-58 -150q0 -55 21.5 -107.5t73.5 -113t108.5 -114t156.5 -139.5l274 -236 q20 85 14.5 168t-34.5 146q-45 95 -121 93h-30v21h524v-21h-28q-18 0 -30 -5.5t-19 -12t-11 -23.5t-5.5 -28t-3.5 -37q0 -4 -0.5 -6.5t-0.5 -5.5q-22 -259 -106 -419q142 -123 229 -190t153 -99l2 -23q-100 -11 -160 -15.5t-156 -4t-179.5 19.5t-159.5 56q-166 -76 -410 -76 q-62 0 -124.5 4.5t-140.5 17.5t-147 33.5t-136 55.5t-115 81t-77.5 113t-29.5 147zM487 500q8 -106 54.5 -189.5t115 -131.5t143 -72.5t148.5 -24.5q95 0 175 40q-40 29 -100.5 77t-107 86t-100.5 82.5t-63 52.5q-158 130 -250 229q-22 -65 -15 -149z" />
<glyph unicode="'" horiz-adv-x="450" d="M61 1035q53 135 65 211t-4 188l268 28q2 -35 -5 -79.5t-27.5 -99.5t-52.5 -104t-86.5 -91.5t-122.5 -63.5z" />
<glyph unicode="(" horiz-adv-x="978" d="M184 683q0 164 42.5 301t128 246t226 179t325.5 90l13 -16q-335 -161 -325 -796q6 -343 86 -554t235 -319l-12 -19q-183 44 -323.5 133.5t-225.5 208.5t-127.5 256.5t-42.5 289.5z" />
<glyph unicode=")" horiz-adv-x="978" d="M61 1483l13 16q185 -20 325.5 -90t226 -179t128 -246t42.5 -301q0 -152 -42.5 -289.5t-127.5 -256.5t-225.5 -208.5t-323.5 -133.5l-12 19q155 108 235 319t86 554q10 635 -325 796z" />
<glyph unicode="*" horiz-adv-x="798" d="M72 1236l6 112l61 94l150 -76l102 -109l-73 131l-27 166l109 29l108 -29l-26 -166l-73 -132l102 110l150 78l61 -95l6 -112l-166 -27l-148 29l137 -63l120 -118l-71 -87l-105 -41l-77 150l-18 149l-18 -149l-76 -151l-104 41l-71 87l119 119l136 63l-147 -28z" />
<glyph unicode="+" horiz-adv-x="985" d="M82 568v133h345v345h133v-345h345v-133h-345v-345h-133v345h-345z" />
<glyph unicode="," horiz-adv-x="532" d="M72 174q6 88 67 131q69 52 161 26t130 -110q30 -74 31 -148t-31.5 -141t-80.5 -115.5t-116.5 -71.5t-140.5 -9l-8 26q29 13 52 38t35 58.5t0.5 77t-50.5 87.5q-55 63 -49 151z" />
<glyph unicode="-" horiz-adv-x="778" d="M61 598l21 82h614l21 -82l-21 -84h-614z" />
<glyph unicode="." horiz-adv-x="512" d="M72 156q0 76 54 130t130 54t130 -54t54 -130q0 -77 -54 -131t-130 -54t-130 54t-54 131z" />
<glyph unicode="/" horiz-adv-x="899" d="M20 29l739 1452l121 -55l-739 -1455z" />
<glyph unicode="0" horiz-adv-x="1413" d="M72 717q0 340 169.5 542.5t465.5 202.5t465.5 -202.5t169.5 -542.5t-169.5 -543t-465.5 -203t-465.5 203t-169.5 543zM502 717q0 -331 49.5 -487t155.5 -156t155.5 156t49.5 487t-49.5 487t-155.5 156t-155.5 -156t-49.5 -487z" />
<glyph unicode="1" horiz-adv-x="868" d="M61 1311h37q66 0 100.5 -32.5t34.5 -108.5v-1039q0 -46 -33 -78.5t-80 -32.5h-43v-20h730v20h-43q-46 0 -79.5 32.5t-33.5 77.5v1332h-21q-95 -57 -270 -90.5t-299 -40.5v-20z" />
<glyph unicode="2" horiz-adv-x="1347" d="M61 1302q87 76 234.5 118t302.5 42q167 0 298.5 -49t209 -145.5t77.5 -225.5q0 -87 -41 -174.5t-86 -145.5t-141 -134.5t-137 -104t-143 -91.5q-33 -21 -48 -31h390q92 0 159 51.5t121 163.5h21l-139 -576h-1066v20q55 68 149 179t156 184.5t137.5 175.5t120.5 181 t76 171t31 174q0 133 -70.5 208.5t-191.5 66.5q-129 -11 -195.5 -119t-65.5 -308h-21z" />
<glyph unicode="3" horiz-adv-x="1232" d="M61 1313q80 66 214 105.5t296 39.5q245 0 382.5 -92.5t137.5 -259.5q0 -133 -82.5 -212.5t-194.5 -85.5q49 -10 94.5 -27.5t90.5 -50t78 -75t54 -106t21 -139.5q0 -117 -48.5 -216.5t-129 -167t-189 -111t-226.5 -56t-243 6t-236 68.5l4 21q168 -4 310.5 55t229 173 t86.5 259q0 72 -22.5 131t-59.5 97.5t-87 65t-102 38.5t-107 13l3 21q144 -5 246 98.5t89 250.5q-10 108 -80.5 158.5t-169.5 40.5q-122 -10 -174 -107t-47 -291h-20z" />
<glyph unicode="4" horiz-adv-x="1316" d="M-31 387v20l1058 1055h19v-860h89q53 0 82.5 20t49.5 62h21l-64 -297h-178v-257q1 -46 34 -78t79 -32h22v-20h-691l1 20h22q45 0 78.5 31t34.5 76v260h-657zM315 602h311v302z" />
<glyph unicode="5" horiz-adv-x="1210" d="M20 -63l5 20q46 -2 106.5 7t131 27t138 51.5t124.5 76.5t93.5 105.5t40.5 135.5q7 115 -64.5 184t-193.5 73.5t-280 -56.5l-19 12l171 787l610 51q110 0 162 102h21l-87 -423l-629 -52l-39 -170q264 61 444 11t270.5 -177t82.5 -305q-6 -123 -62.5 -224t-145.5 -166 t-202.5 -105.5t-232 -48t-235 13t-210.5 70.5z" />
<glyph unicode="6" horiz-adv-x="1382" d="M82 645q0 221 66.5 393t196.5 287.5t333.5 162.5t466.5 16l7 -15q-124 -38 -217.5 -83.5t-158.5 -90.5t-109 -109.5t-69 -119.5t-37.5 -142.5t-15.5 -157.5t-3 -184q0 -92 2.5 -156.5t9 -126t18.5 -100.5t31 -69.5t46.5 -44t65.5 -13.5q37 0 65 12.5t45.5 38.5t29 55.5 t17 73.5t7.5 82.5t2 91.5q0 162 -26.5 233t-76.5 91q-73 30 -154 -22l-15 16q19 42 54.5 75.5t81 53t98.5 29t107 2t106.5 -26t97.5 -56.5t79 -88.5t52.5 -123.5t15.5 -160q-3 -105 -40 -193t-108 -157t-185.5 -108.5t-262.5 -41.5q-306 -5 -464.5 162t-158.5 514z" />
<glyph unicode="7" horiz-adv-x="1171" d="M10 952h21q23 63 58.5 93t94.5 30h656l-106 -227q-62 -132 -216.5 -408.5t-255.5 -439.5h348q46 164 134 427t147 399l261 604h-1084z" />
<glyph unicode="8" horiz-adv-x="1302" d="M52 326q0 71 24 130t66 99.5t87 67t99 45.5q-188 146 -188 366q0 133 66.5 231t179.5 147.5t257 49.5q135 0 250.5 -43t186.5 -123.5t71 -181.5q0 -105 -76.5 -175t-194.5 -98q64 -33 103 -55.5t87.5 -55t76.5 -62.5t54.5 -69.5t38 -86t11.5 -102.5q0 -212 -172.5 -325.5 t-467.5 -113.5q-69 0 -131.5 6.5t-127.5 21t-117.5 41.5t-94.5 65t-65 94.5t-23 126.5zM397 387q0 -141 60.5 -221.5t169.5 -91.5q101 -10 174 40.5t73 132.5q0 68 -69.5 132t-253.5 158l-42 21q-42 21 -65 34q-47 -83 -47 -205zM476 1186q0 -81 58 -137t228 -147 q27 51 39 120.5t10 126.5q-4 89 -48.5 147t-125.5 62q-74 4 -117.5 -44.5t-43.5 -127.5z" />
<glyph unicode="9" horiz-adv-x="1382" d="M82 956q3 105 40 193t107.5 157t185.5 108.5t263 41.5q305 5 463.5 -162t158.5 -514q0 -176 -41.5 -321.5t-127.5 -257.5t-211.5 -182.5t-298.5 -96t-384 -0.5l-7 15q124 38 217.5 83t158.5 90.5t109 109.5t68.5 119.5t37.5 142.5t16 157.5t3 183.5q0 110 -3.5 184.5 t-14.5 140.5t-30.5 103.5t-50.5 58.5t-76 21q-37 0 -65 -12.5t-45 -38.5t-28 -54.5t-16.5 -73t-7 -82t-1.5 -91.5q0 -163 26 -233.5t76 -90.5q73 -30 154 22l15 -16q-19 -42 -54.5 -75.5t-80.5 -53t-98 -29t-107.5 -2t-106.5 26t-97.5 56.5t-79 88.5t-52 123.5t-15.5 160z " />
<glyph unicode=":" horiz-adv-x="512" d="M72 156q0 76 54 130t130 54t130 -54t54 -130q0 -77 -54 -131t-130 -54t-130 54t-54 131zM72 939q0 77 54 130.5t130 53.5t130 -53.5t54 -130.5t-54 -130.5t-130 -53.5t-130 53.5t-54 130.5z" />
<glyph unicode=";" horiz-adv-x="532" d="M72 174q6 88 67 131q69 52 161 26t130 -110q30 -74 31 -148t-31.5 -141t-80.5 -115.5t-116.5 -71.5t-140.5 -9l-8 26q29 13 52 38t35 58.5t0.5 77t-50.5 87.5q-55 63 -49 151zM72 998q0 76 54 130t130 54t130 -54t54 -130t-54 -130t-130 -54t-130 54t-54 130z" />
<glyph unicode="&#x3c;" horiz-adv-x="1026" d="M82 574v121l823 383v-146l-633 -297l633 -299v-145z" />
<glyph unicode="=" horiz-adv-x="985" d="M82 366v133h823v-133h-823zM82 725v133h823v-133h-823z" />
<glyph unicode="&#x3e;" horiz-adv-x="985" d="M82 191v145l632 299l-632 297v146l823 -383v-121z" />
<glyph unicode="?" horiz-adv-x="1009" d="M0 1280q47 82 167.5 132t285.5 50q240 0 367.5 -94.5t127.5 -267.5q0 -62 -16.5 -112.5t-57.5 -100t-91 -92t-136 -105.5q-35 -25 -50.5 -37t-39 -37.5t-30 -46t-4.5 -51.5t20 -65l-18 -13q-97 25 -156.5 91t-49.5 163q4 39 20.5 72.5t37.5 55.5t44.5 51t43 58t32 77.5 t11.5 109.5q-2 117 -49.5 179.5t-136.5 62.5q-199 0 -199 -315h-21zM277 156q0 76 54.5 130t131.5 54q75 0 129 -54t54 -130t-54 -130.5t-129 -54.5q-77 0 -131.5 54.5t-54.5 130.5z" />
<glyph unicode="@" horiz-adv-x="2043" d="M41.5 545.5q-4.5 122.5 54.5 263.5q85 206 267 355.5t426 214.5t503 30q179 -25 316 -93.5t222 -170t126.5 -228.5t37.5 -274q-6 -238 -120.5 -439t-320 -324.5t-491.5 -135.5t-636 127l-9 20q145 -59 284.5 -79.5t260 -2.5t228.5 65.5t192.5 126t148.5 178t101 221.5 t45 257q15 266 -88 438.5t-309 219.5q-70 19 -148.5 15.5t-156 -21t-157 -60.5t-150.5 -103t-137.5 -149t-117.5 -198q-47 -99 -74.5 -197t-31.5 -177.5t24.5 -130t87.5 -52.5q43 -2 85.5 20t83.5 66t72 83.5t72.5 98.5t63.5 86l260 354q95 118 112 158h14l171 -827 q20 -96 82 -96h10l-2 -16h-489l2 16h15q31 0 61 27t24 68l-17 109h-279q-99 -128 -174 -182t-167 -58q-105 -5 -191.5 44.5t-134 139.5t-52 212.5zM814 461h214l-38 248z" />
<glyph unicode="A" horiz-adv-x="1474" d="M-82 0v20h18q46 0 93 28t78 83l477 1046q108 230 117 306h19l648 -1350q33 -57 79 -85t93 -28h17v-20h-776v20h18q45 0 73 36q16 20 16 46q0 21 -10 47l-80 191h-437l-82 -191q-12 -27 -12 -49q-1 -25 15 -44q28 -36 75 -36h18v-20h-457zM406 442h349l-171 410z" />
<glyph unicode="B" horiz-adv-x="1497" d="M61 0l1 21h26q53 0 91.5 37t39.5 90v1138q-1 53 -39.5 90t-91.5 37h-26l-1 21h714q569 0 569 -356q0 -140 -78.5 -217.5t-189.5 -80.5q158 -8 265 -108q106 -99 106 -260q0 -107 -47 -186.5t-133.5 -128t-202.5 -73t-258 -24.5h-745zM639 105l26 1q64 0 116.5 17.5 t95 55.5t66 105t23.5 161q0 147 -65 229q-66 84 -193 83v20q97 0 146 69t49 199q0 286 -238 286h-26v-1226z" />
<glyph unicode="C" horiz-adv-x="1624" d="M72 719q0 350 236.5 546.5t660.5 196.5q304 0 525 -93l-20 -392h-17q-60 207 -173 295t-281 88q-227 0 -354 -168t-127 -467q0 -301 117.5 -473t327.5 -178q101 0 173.5 17.5t127 53.5t93.5 100t66 147.5t50 205.5h17l48 -373q-68 -114 -208 -184t-367 -70 q-417 2 -656 198t-239 550z" />
<glyph unicode="D" horiz-adv-x="1724" d="M61 0l1 20h26q54 0 92 38t39 91v1147q0 49 -39.5 83t-91.5 34h-26v21l775 -1q385 0 601 -189.5t216 -527.5t-216 -527t-601 -189h-776zM639 103h157q192 0 300 162t108 451t-108 452t-300 163h-157v-1228z" />
<glyph unicode="E" horiz-adv-x="1366" d="M61 0l1 20h26q54 0 92 38t39 91v1136q-2 53 -39.5 90.5t-91.5 37.5h-26v21h906q64 1 139 12.5t105 24.5v-423l-21 1v16q0 121 -67 191t-188 74h-297v-572h223q97 1 159.5 64t62.5 160v10h20v-570h-20v10q0 96 -61 158.5t-158 65.5h-226v-552h253q149 0 263 98t162 272h20 l-78 -474h-1198z" />
<glyph unicode="F" horiz-adv-x="1292" d="M61 0l1 20h26q54 0 92 38t39 91v1136q-2 53 -39.5 90.5t-91.5 37.5h-26l-1 21h907q64 1 139 12.5t105 24.5v-423l-21 1v16q0 121 -67 191t-188 74h-297v-572h223q97 1 159.5 64t62.5 160v10h20v-570h-20v10q0 96 -61 158.5t-158 65.5h-226v-507q1 -53 39 -91t92 -38h26 v-20h-735z" />
<glyph unicode="G" horiz-adv-x="1763" d="M72 721q0 348 217 544.5t602 196.5q167 0 342.5 -27t266.5 -66l-20 -392h-17q-109 383 -470 383q-471 0 -471 -659q0 -299 97 -463t296 -164q108 0 189 58.5t81 159.5l3 281q1 45 -27 69t-78 24h-33v21h688v-21h-31q-50 0 -76 -24t-25 -69v-338q-80 -102 -287 -183 t-448 -81q-366 0 -582.5 200t-216.5 550z" />
<glyph unicode="H" horiz-adv-x="1828" d="M61 0l1 20h26q54 0 92 38t39 91v1136q-2 53 -40 90.5t-91 37.5h-26l-1 21h735v-21h-26q-53 0 -91.5 -37t-39.5 -90v-518h551v519q-2 53 -40 89.5t-91 36.5h-26v21h735l-1 -21h-26q-54 0 -92 -37.5t-39 -90.5v-1136q1 -53 39 -91t92 -38h26l1 -20h-735v20h26q53 0 91 37.5 t40 90.5v518h-551v-517q1 -53 39 -91t92 -38h26v-20h-735z" />
<glyph unicode="I" horiz-adv-x="856" d="M61 0l1 20h26q54 0 92 38t39 91v1136q-2 53 -40 90.5t-91 37.5h-26l-1 21h735v-21h-26q-53 0 -91.5 -37t-39.5 -90v-1137q1 -53 39 -91t92 -38h26v-20h-735z" />
<glyph unicode="J" horiz-adv-x="868" d="M-10 -391q58 26 101.5 68t69 89.5t41.5 107.5t21.5 115t5.5 119v1176q-1 53 -39 91t-92 38h-26v21h735v-21h-26q-54 0 -91.5 -37.5t-39.5 -90.5v-1182q0 -127 -56.5 -232.5t-148.5 -171t-211 -95.5q-78 -20 -158 -20q-43 0 -86 6v19z" />
<glyph unicode="K" horiz-adv-x="1683" d="M61 0l1 21h26q54 0 92 37.5t39 90.5v1137q-1 53 -39.5 90t-91.5 37h-26l-1 21h735v-21h-26q-53 0 -91.5 -37t-39.5 -90v-1137q1 -53 39 -90.5t92 -37.5h26v-21h-735zM705 652l489 667q15 21 15 41q-1 13 -7 25q-16 31 -57 31h-20v18h494v-19h-9q-66 0 -125 -27.5 t-100 -73.5l-346 -417l478 -721q100 -152 219 -155v-21h-221q-157 0 -263 31q-172 50 -263 174q-29 39 -99.5 149.5t-127.5 203t-57 94.5z" />
<glyph unicode="L" horiz-adv-x="1335" d="M61 0l1 20h26q54 0 92 38t39 91v1135q-1 53 -39 91t-92 38h-26l-1 21h735v-21h-26q-54 0 -92 -38t-39 -91v-1180h253q149 0 263 98t162 272h20l-78 -474h-1198z" />
<glyph unicode="M" horiz-adv-x="1982" d="M-51 0v20h33q57 0 99.5 35t50.5 94l180 1313h19l686 -940l632 940h19l185 -1313q11 -60 52 -94.5t97 -34.5h33v-20h-726v19h32q32 0 56 27t24 61l-78 598l-349 -516q-10 -14 -24 -39q-14 -24 -38 -88q-22 -59 -22 -103v-8h-19l-532 735l-72 -579q0 -34 24 -61t56 -27h31 v-19h-449z" />
<glyph unicode="N" horiz-adv-x="1804" d="M41 0v20h38q52 0 89 36t38 88v1064q0 71 -7 135t-14 93l-7 28h21l1 -2l979 -870v697q-1 52 -38 88t-89 36h-37l-1 21h750v-21h-38q-52 0 -88.5 -35.5t-38.5 -86.5v-1058q0 -75 6.5 -140.5t13.5 -93.5l7 -28h-18l-982 873v-699q1 -52 37.5 -88.5t88.5 -36.5h38v-20h-749z " />
<glyph unicode="O" horiz-adv-x="1853" d="M72 717q0 351 226.5 548t623.5 197t624 -197t227 -548t-227 -548.5t-624 -197.5t-623.5 197.5t-226.5 548.5zM524 717q0 -303 105 -473t293 -170t293.5 170t105.5 473t-105.5 473t-293.5 170t-293 -170t-105 -473z" />
<glyph unicode="P" horiz-adv-x="1447" d="M72 0v21h26q54 0 92 37.5t39 90.5v1146q-5 50 -42.5 84t-88.5 34h-25l-1 21h780q148 0 258 -31t174.5 -86.5t96.5 -123t37 -150.5q1 -14 1 -28q0 -77 -24 -147q-28 -82 -79 -140.5t-122 -96t-149 -47.5q-23 -3 -47 -2q-56 0 -116 16q-86 22 -163 77v19l10 2q10 1 28 6 t40 13.5t46.5 27t47 42.5t42.5 63.5t32 87.5q13 52 13 103q0 10 -1 20q-5 126 -72 199t-183 73h-73v-1182q1 -53 39 -90.5t92 -37.5h26l1 -21h-735z" />
<glyph unicode="Q" horiz-adv-x="1867" d="M82 717q0 351 227 548t624 197t624 -197t227 -548q0 -261 -129 -440t-366 -255q96 -15 193 -42t164 -50t240 -86q277 -101 497 -101q246 0 421 126l14 -6q0 -109 -40.5 -200.5t-112.5 -155.5t-177 -98.5t-228 -34.5t-271 42t-301 125q-88 48 -182 113.5t-161 116 t-137 97.5t-140 74t-140 29q-395 2 -620.5 199.5t-225.5 546.5zM534 717q0 -303 105.5 -473t293.5 -170t293.5 170t105.5 473t-105.5 473t-293.5 170t-293.5 -170t-105.5 -473z" />
<glyph unicode="R" horiz-adv-x="1624" d="M72 0v21h26q53 0 91.5 37t39.5 90v1137q-1 53 -39.5 90.5t-91.5 37.5h-26v21h800q81 0 152.5 -9.5t145 -36t126 -68.5t86 -112t33.5 -161q0 -50 -9 -97t-32.5 -96t-59.5 -87.5t-94 -68t-132 -40.5q80 -24 144 -80t105 -125q1 -2 20.5 -35.5t41.5 -71t54 -86.5t58 -84 q68 -93 115.5 -123t122.5 -32v-21h-256q-84 0 -142 4t-124.5 17.5t-115 38t-95.5 68.5t-84 106q-33 56 -52.5 114.5t-33.5 124.5t-21 90q-20 67 -45.5 95.5t-60.5 42.5v20h33q88 0 145 62t74 190q4 50 4 75v9q-7 143 -70 206.5t-164 63.5h-90v-1178q1 -53 39 -90.5t92 -37.5 h26v-21h-736z" />
<glyph unicode="S" horiz-adv-x="1320" d="M101 302q22 120 75 190h18q-1 -12 -1 -24q0 -68 25 -132q29 -75 85 -133.5t144 -93.5t192 -35q140 0 214.5 58t74.5 143q0 65 -51 118.5t-167 106.5l-334 155q-140 65 -205 179q-50 89 -50 197q0 32 4 65q22 177 146 271.5t331 94.5q138 0 346 -21h159l-44 -333h-20 q-1 113 -88.5 182.5t-237.5 69.5q-124 0 -198.5 -47.5t-80.5 -124.5v-13q0 -57 42 -95q46 -42 140 -84l383 -176q120 -55 183 -155q54 -86 54 -205q0 -19 -1 -38q-15 -218 -183 -334.5t-460 -116.5q-171 0 -300 37.5t-185 95.5q-19 46 -19 107q0 42 9 91z" />
<glyph unicode="T" horiz-adv-x="1429" d="M20 1052v421q30 -13 104 -24.5t137 -12.5h908q63 1 137 12.5t104 24.5v-421h-20v16q0 122 -69.5 192.5t-193.5 72.5h-201v-1185q2 -53 40 -90.5t91 -37.5h26v-20h-735v20h26q53 0 91 36.5t40 89.5v1187h-201q-124 -2 -193.5 -72.5t-69.5 -192.5v-16h-21z" />
<glyph unicode="U" horiz-adv-x="1730" d="M61 1413v21h703v-21h-33q-44 0 -75.5 -28t-32.5 -70v-782q0 -215 98.5 -335.5t274.5 -120.5t275 113.5t100 316.5v808q-2 42 -33 70t-75 28h-34v21h461v-21h-34q-44 0 -74.5 -27.5t-33.5 -69.5v-789q0 -262 -160 -409t-453 -147q-368 0 -550 143.5t-182 408.5v789 q-1 44 -32 72.5t-76 28.5h-34z" />
<glyph unicode="V" horiz-adv-x="1474" d="M-82 1413v21h777v-21h-18q-45 1 -73 -35q-16 -21 -15 -49q0 -20 8 -44l294 -703l306 703q12 26 12 48q0 25 -16 45q-29 36 -75 35h-18v21h457v-21h-18q-46 0 -92.5 -28t-77.5 -83l-478 -1046q-108 -230 -117 -305h-18l-649 1349q-33 57 -79 85t-94 28h-16z" />
<glyph unicode="W" horiz-adv-x="1974" d="M-102 1413v21h735v-21h-18q-45 -1 -71 -35q-15 -20 -15 -46q0 -20 9 -45l224 -558l354 737l19 -1l408 -754l162 575q6 24 6 43q0 29 -14 50q-24 34 -70 34h-18v21h448v-21h-18q-51 0 -102 -29.5t-74 -86.5l-347 -1114q-5 -14 -12 -38q-6 -25 -14 -85q-5 -38 -6 -70 q0 -19 2 -35h-19l-473 890l-324 -662q-6 -13 -15 -35t-24.5 -82.5t-15.5 -110.5h-20l-506 1342q-27 58 -75.5 87t-99.5 29h-16z" />
<glyph unicode="X" horiz-adv-x="1583" d="M-68 0v21h29q112 0 202 116l408 557l-391 599q-35 51 -91 85.5t-116 34.5h-28v21h823v-21h-26q-44 -1 -69 -43q-12 -21 -12.5 -42t12.5 -42l238 -363l233 363q12 20 12 41t-14 43q-27 42 -71 43h-25l-1 21h530v-21h-28q-61 0 -114 -33.5t-90 -85.5l-342 -510l422 -644 q35 -51 91 -85.5t117 -34.5h28v-20h-827v20h26q44 0 69 42q12 21 12.5 42.5t-12.5 42.5l-269 413l-291 -412q-14 -21 -14 -43q-1 -21 13 -41q28 -42 73 -43h26v-21h-533z" />
<glyph unicode="Y" horiz-adv-x="1492" d="M-92 1413v21h791v-21h-26q-45 0 -69 -42q-13 -22 -13 -45q0 -20 10 -40l282 -506l291 506q11 20 11 40q0 22 -14 44q-26 43 -69 43h-26v21h510v-21h-28q-61 0 -117 -34.5t-90 -85.5l-402 -634v-510q1 -53 39.5 -91t92.5 -38h26v-20h-735v20h26q53 0 92 37.5t40 90.5v512 l-390 636q-32 49 -88 83t-116 34h-28z" />
<glyph unicode="Z" horiz-adv-x="1368" d="M72 0v19l680 1314h-369q-123 -1 -192 -71.5t-69 -193.5v-16l-21 -1v422q31 -13 108 -25t140 -12h705q62 0 130.5 8t86.5 18v-17l-687 -1343h289q149 0 263 99t162 273h21l-79 -474h-1168z" />
<glyph unicode="[" horiz-adv-x="966" d="M246 -184v1663h633v-21l-213 -102v-1417l220 -103v-20h-640z" />
<glyph unicode="\" horiz-adv-x="899" d="M20 1426l121 55l739 -1452l-120 -58z" />
<glyph unicode="]" horiz-adv-x="966" d="M82 -164l220 103v1417l-213 102v21h633v-1663h-640v20z" />
<glyph unicode="^" horiz-adv-x="1171" d="M72 352h182l334 314l331 -314h182l-443 428h-139z" />
<glyph unicode="_" horiz-adv-x="1024" d="M0 -123h1024v-102h-1024v102z" />
<glyph unicode="`" d="M110 1712q21 74 62 124t113 80q88 -76 182.5 -183t133.5 -197l-14 -14q-108 13 -241 67.5t-236 122.5z" />
<glyph unicode="a" horiz-adv-x="1294" d="M-86 0v20h16q43 0 86.5 25t69.5 75l421 911q100 216 107 272h16l579 -1178q27 -53 70 -79t89 -26h16v-20h-719v20h16q41 0 65 28q13 15 14 37q0 18 -10 40l-59 135h-381l-61 -140q-7 -18 -7 -34q0 -22 15 -38q25 -28 64 -28h16v-20h-423zM351 353h299l-150 343z" />
<glyph unicode="b" horiz-adv-x="1282" d="M47 0v20h23q44 0 74.5 31t30.5 77v973q0 46 -30 76.5t-75 30.5h-23v21h636q83 0 151 -8t132 -29t107.5 -54.5t69.5 -88t26 -126.5q0 -123 -66 -189q-65 -65 -156 -65h-3q129 -4 218 -88t89 -227q0 -121 -72 -202t-193 -116.5t-288 -35.5h-651zM570 94q101 3 165 72 t64 218q-1 126 -39 196q-38 69 -130 68h-3v17q52 0 82 30.5t39.5 76.5t9.5 119q0 246 -183 246h-5v-1043z" />
<glyph unicode="c" horiz-adv-x="1368" d="M47 615q0 302 205 470t575 168q263 0 446 -73l-26 -349h-15q-53 180 -144 254.5t-226 74.5q-202 0 -299 -144t-97 -394q0 -251 94.5 -399t266.5 -155q72 0 124.5 9t93.5 33t69 55t51.5 85t39.5 113t35 149h15l53 -327q-122 -210 -481 -210q-366 2 -573 168t-207 472z" />
<glyph unicode="d" horiz-adv-x="1517" d="M37 1208v21h699q347 0 540 -162t193 -454q0 -291 -193 -452t-540 -161h-697v20h24q47 0 81 33t34 79v972q-2 45 -35.5 74.5t-81.5 29.5h-24zM579 95h116q165 0 260 137t95 381q0 246 -94.5 384.5t-260.5 138.5h-116v-1041z" />
<glyph unicode="e" horiz-adv-x="1177" d="M43 0v21h22q44 0 75.5 30.5t31.5 76.5v973q0 46 -31.5 76.5t-75.5 30.5h-22v21h798q51 0 115 10.5t89 20.5v-388h-20v11q0 118 -62.5 184t-178.5 67h-211v-481h157q91 1 147.5 60.5t56.5 150.5v4h21v-527h-21v7q0 91 -56.5 150t-147.5 60h-157v-463h198q122 0 222.5 89.5 t137.5 245.5h18l-58 -430h-1048z" />
<glyph unicode="f" horiz-adv-x="1110" d="M43 0v21h22q44 0 75 30.5t31 76.5v973q0 46 -31 76.5t-75 30.5h-22v21h798q51 0 114.5 10.5t88.5 20.5v-391h-20v11q0 119 -63.5 186t-181.5 68h-206v-481h157q91 1 147.5 60.5t56.5 150.5v4h20v-527h-20v7q0 91 -56.5 150t-147.5 60h-157v-430q1 -46 32 -76.5t76 -30.5 h22v-21h-660z" />
<glyph unicode="g" horiz-adv-x="1480" d="M49 618q0 300 183.5 467.5t514.5 167.5q139 0 295 -22t232 -51l-29 -349h-14q-92 329 -380 329q-198 0 -291 -142.5t-93 -419.5q0 -254 75 -392t230 -138q84 0 144 52q49 43 49 110q0 15 -2 31v231q0 39 -23 60t-64 21h-29v16h625v-16h-24q-42 0 -64.5 -21t-22.5 -60 v-292q-65 -86 -247 -155.5t-387 -69.5q-312 0 -495 171t-183 472z" />
<glyph unicode="h" horiz-adv-x="1544" d="M43 0v20h23q43 0 74.5 31t31.5 77v974q-1 45 -32 75.5t-74 30.5h-23v21h660v-21h-21q-45 0 -76 -30.5t-32 -76.5v-438h399v438q-1 46 -32.5 76.5t-76.5 30.5h-21v21h660v-21h-22q-45 0 -77 -30t-32 -77v-974q0 -45 31 -76t75 -31h23v-20h-658v20h21q45 0 76.5 31t32.5 77 v442h-400v-442q1 -46 32.5 -77t76.5 -31h21v-20h-660z" />
<glyph unicode="i" horiz-adv-x="743" d="M43 0v20h22q43 0 74 30.5t31 76.5v976q-1 45 -31.5 75t-73.5 30h-22v21h656v-21h-21q-44 0 -74.5 -30.5t-31.5 -76.5l-1 -973q1 -46 32 -77t75 -31h22v-20h-657z" />
<glyph unicode="j" horiz-adv-x="739" d="M-27 -334q51 24 87 62.5t56 79t31 96t14 100.5t3 106v986q-1 47 -33 79.5t-77 32.5h-22v21h667v-21h-22q-44 0 -76.5 -31.5t-34.5 -76.5v-996q0 -93 -33 -173.5t-91 -137t-133 -94t-161 -50.5q-45 -7 -91 -7q-42 0 -84 6v18z" />
<glyph unicode="k" horiz-adv-x="1443" d="M45 1210v20h663l-1 -20h-21q-45 0 -76.5 -31.5t-32.5 -76.5v-974q1 -46 32.5 -77t76.5 -31h20v-20h-659v20h20q45 0 76.5 31t32.5 77v975q-1 46 -33 76.5t-76 30.5h-22zM629 550l408 580q21 30 8.5 56t-48.5 26h-17v18h418v-18h-7q-106 0 -178 -75l-275 -344l387 -634 q87 -139 186 -142v-17h-210h-9h-14q-318 0 -451 184q-29 40 -78 130.5t-84.5 161.5t-35.5 74z" />
<glyph unicode="l" horiz-adv-x="1140" d="M43 0v20h22q43 0 74.5 31t31.5 77v974q-1 45 -31.5 75.5t-73.5 30.5h-23v21h661v-21h-23q-45 0 -76 -30.5t-32 -76.5v-1006h198q122 0 222 89.5t137 245.5h20l-59 -430h-4h-1044z" />
<glyph unicode="m" horiz-adv-x="1748" d="M-39 0v20h27q51 0 87.5 28t44.5 79l159 1126h15l612 -768l547 768h17l165 -1136q12 -46 46 -71.5t79 -25.5h28v-20h-663v20h27q38 0 54.5 26t14.5 51l-67 459l-284 -394q-9 -12 -22 -34q-14 -22 -35 -76q-18 -48 -18 -86v-11h-17l-460 574l-56 -431q-2 -23 16 -50.5 t53 -27.5h27v-20h-397z" />
<glyph unicode="n" horiz-adv-x="1595" d="M25 0v21h33q47 0 79.5 29.5t32.5 73.5v915q0 61 -6 115t-12 78l-6 23h17l859 -724v574q0 45 -31.5 74t-78.5 29h-35v21h696v-21h-35q-47 0 -79.5 -28.5t-32.5 -72.5v-909q0 -67 6 -122.5t12 -77.5l6 -23h-18l-861 723v-574q1 -45 33.5 -74t79.5 -29h34v-21h-693z" />
<glyph unicode="o" horiz-adv-x="1595" d="M51 613q0 304 197.5 472t548.5 168q353 0 550 -168t197 -472q0 -302 -197.5 -470t-549.5 -168q-351 0 -548.5 168t-197.5 470zM470 613q0 -261 84 -403t243 -142q160 0 243 141.5t83 403.5q0 263 -83 405t-243 142q-159 0 -243 -142.5t-84 -404.5z" />
<glyph unicode="p" horiz-adv-x="1243" d="M43 1208v21h689q104 0 185.5 -18t134.5 -48.5t88.5 -74t52 -90t19.5 -101.5q1 -15 1 -29q0 -65 -19 -124q-22 -73 -64.5 -125t-102.5 -85t-125 -42q-19 -2 -38 -2q-48 0 -99 15q-72 21 -136 72v17q5 1 13 3t30.5 15.5t41.5 33.5t39.5 61t30.5 94q11 62 11 96v10 q-5 106 -57 167.5t-140 61.5h-25v-1008q2 -47 31 -77t76 -30h21v-21h-656v20h22q44 0 74 31t30 77v976q-1 45 -32 74.5t-74 29.5h-22z" />
<glyph unicode="q" horiz-adv-x="1556" d="M52 613q0 304 190.5 472t533.5 168q344 0 535.5 -168t191.5 -472q0 -220 -103 -370.5t-296 -217.5q81 -12 157 -31.5t129.5 -38t194.5 -70.5q175 -65 316 -81q57 -7 108 -7q74 0 135 14q101 24 187 85l12 -7v-12q0 -99 -31 -180q-33 -86 -94.5 -143t-150.5 -86 q-81 -26 -175 -26h-20q-105 3 -230.5 42.5t-254.5 114.5q-77 45 -154 103t-130 102.5t-106.5 85t-107.5 62.5t-110 23h-5q-342 0 -532 167.5t-190 470.5zM472 613q0 -262 77 -403.5t227 -141.5q152 0 229.5 141.5t77.5 403.5q0 264 -77.5 405.5t-229.5 141.5 q-150 0 -227 -141.5t-77 -405.5z" />
<glyph unicode="r" horiz-adv-x="1388" d="M66 0v20h22q42 0 73.5 31t31.5 77v973q0 46 -30.5 76.5t-72.5 30.5h-24v21h704q69 0 128.5 -7.5t124.5 -29.5t110 -58t74.5 -98t30.5 -145q0 -52 -12 -99.5t-39.5 -96t-81.5 -83.5t-130 -48q72 -19 132 -73t91 -110q9 -16 30 -57.5t46 -86.5t53 -87q55 -83 91 -106.5 t91 -23.5v-20h-241q-58 0 -89 1t-75 4.5t-70 12t-59 23t-57.5 36.5t-51 54.5t-51.5 75.5q-40 69 -59 128.5t-37 149.5q-20 94 -68 118v15h10q57 0 100.5 52.5t55.5 171.5q0 2 1 12t1.5 21.5t-0.5 31.5q-2 48 -13.5 85.5t-25 60.5t-35.5 39.5t-35.5 23.5t-35 10.5t-24.5 3.5 h-13h-41v-1004q0 -49 34 -77.5t74 -28.5h19v-20h-657z" />
<glyph unicode="s" horiz-adv-x="1124" d="M90 273q22 108 72 168h11v-17q-1 -86 37 -161q42 -83 130 -137.5t205 -55.5h4q105 0 157 46q54 47 53 113q0 57 -48 104.5t-156 94.5l-215 99q-132 56 -194 163q-46 81 -46 180q0 32 5 66q22 159 121.5 238t267.5 79q127 0 309 -18h138l-50 -298h-13q0 99 -72 160 t-194 61q-94 0 -148.5 -36.5t-61.5 -99.5q-4 -33 7.5 -58t40.5 -45.5t52 -31.5t66 -29l266 -121q110 -45 169 -137q50 -77 50 -186q0 -20 -2 -41q-16 -196 -159.5 -297t-398.5 -101q-150 0 -251.5 33.5t-141.5 83.5q-18 43 -18 98q-1 39 8 83z" />
<glyph unicode="t" horiz-adv-x="1255" d="M14 876v386q28 -10 91 -20.5t114 -10.5h817q53 0 121 11t84 20v-386h-21v11q1 117 -62 182.5t-180 66.5h-150v-1008q0 -46 32 -76.5t77 -30.5h20v-21h-659v21h21q45 0 76 30.5t32 76.5v1008h-150q-117 -1 -179.5 -66.5t-62.5 -182.5v-11h-21z" />
<glyph unicode="u" horiz-adv-x="1449" d="M39 1213v16h635v-16h-28q-37 0 -62 -25t-26 -63v-668q0 -182 78 -283t220 -101q138 0 214.5 95t78.5 266v690q-1 39 -27 64t-63 25h-27v16h395v-16h-26q-37 0 -64 -25.5t-27 -63.5v-668q0 -227 -134.5 -354t-384.5 -127q-324 0 -479.5 123.5t-155.5 353.5v672 q0 38 -26.5 63.5t-63.5 25.5h-27z" />
<glyph unicode="v" horiz-adv-x="1269" d="M-86 1208v21h718v-18h-15q-39 -1 -64 -31q-14 -17 -14 -40q0 -17 8 -38l237 -527l238 527q10 22 10 41q0 21 -14 37q-24 30 -63 31h-17v18h419v-21h-15q-43 0 -84.5 -23t-68.5 -71l-412 -864q-101 -215 -107 -275h-17l-575 1140q-27 48 -67.5 70.5t-82.5 22.5h-14z" />
<glyph unicode="w" horiz-adv-x="1742" d="M-66 1208v21h673v-21h-17q-36 0 -58 -26q-14 -17 -15 -41q0 -14 5 -29l188 -427l298 570h15l351 -589l126 438q4 18 4 33q0 25 -12 43q-20 28 -60 28h-15v21h391v-21h-14q-42 0 -84 -21t-64 -64l-301 -944q-4 -11 -9 -31q-6 -20 -14 -72q-5 -34 -4 -64q0 -16 1 -32h-17 l-421 711l-275 -520q-49 -94 -49 -191h-17l-441 1131q-24 50 -65 73.5t-85 23.5h-15z" />
<glyph unicode="x" horiz-adv-x="1363" d="M-49 0v20h24q91 0 163 86l350 470l-334 547q-27 38 -71.5 63.5t-92.5 25.5h-23v20h727v-20h-21q-37 0 -58 -34q-11 -17 -11 -35q0 -17 10 -34l189 -309l198 309q11 18 11 36q0 17 -10 33q-21 34 -58 34h-21v20h444v-20h-25q-48 0 -92 -25.5t-73 -64.5l-297 -447l345 -562 q27 -40 72 -66.5t95 -26.5h23v-20h-731v20h21q37 0 59 34q11 17 10 35q0 17 -10 34l-201 330l-238 -330q-13 -19 -13 -37q0 -16 10 -32q22 -34 60 -34h21v-20h-452z" />
<glyph unicode="y" horiz-adv-x="1296" d="M-98 1208v21h717v-21h-21q-39 0 -60 -34q-12 -18 -12 -36q0 -17 10 -35l254 -429l249 429q10 17 10 34q0 18 -12 37q-22 34 -60 34h-22v21h445v-21h-25q-53 0 -99.5 -27.5t-76.5 -69.5l-346 -540v-443q1 -46 33.5 -77t79.5 -31h23v-20h-671v20h23q45 0 78 31t34 77v441 l-353 543q-28 41 -75 68.5t-99 27.5h-24z" />
<glyph unicode="z" horiz-adv-x="1241" d="M51 0v16l616 1120h-322q-118 0 -182.5 -66.5t-64.5 -184.5v-9h-20v386q26 -11 94 -21t124 -10h691q54 0 116 7t79 15v-14l-593 -1146h221q138 0 244 89t151 248h20l-74 -430h-1100z" />
<glyph unicode="{" horiz-adv-x="833" d="M174 644v21q24 0 36.5 1t28.5 8.5t23 21.5q11 26 -19 162t-30 209q0 89 33.5 165t101 137.5t181 96.5t261.5 35l4 -17q-31 -8 -55 -19.5t-41 -28t-29 -31.5t-19 -40.5t-11.5 -43.5t-5.5 -51t-1 -52.5t1 -59t1 -60.5q0 -78 -6.5 -139.5t-17 -103.5t-28.5 -73.5t-36 -50 t-44.5 -32.5t-50 -21.5t-55.5 -16.5q-31 -8 -47 -13q61 -18 91.5 -29.5t74.5 -41.5t65 -70.5t37.5 -111.5t16.5 -169q0 -36 -4 -82.5t-6.5 -78.5t-3.5 -69.5t5.5 -63.5t20 -51t40.5 -42t67 -27l-4 -17q-119 0 -212.5 23.5t-153.5 63t-99 95.5t-55 116.5t-16 129.5 q0 77 27.5 211t15.5 164q-14 40 -82 46z" />
<glyph unicode="|" horiz-adv-x="542" d="M205 -369v1803h133v-1803h-133z" />
<glyph unicode="}" horiz-adv-x="833" d="M41 1484l3 17q148 0 262 -35t181.5 -96.5t101 -137.5t33.5 -165q0 -73 -30 -209t-19 -162q7 -14 23 -21.5t28.5 -8.5t36.5 -1v-21q-68 -6 -82 -46q-12 -30 15.5 -164t27.5 -211q0 -69 -16 -129.5t-55.5 -116.5t-99.5 -95.5t-153.5 -63t-212.5 -23.5l-3 17q40 10 67 27 t40.5 42t20 51t5.5 63.5t-3.5 69.5t-6.5 78.5t-4 82.5q0 55 5 101.5t12.5 82t22 65.5t27 50.5t35 38.5t38.5 29t45.5 22.5t47 17t51.5 15.5q-16 5 -45.5 13t-44.5 12.5t-40 14.5t-38 20t-32 27.5t-29 39t-22.5 53t-18 69.5t-10 89t-4.5 112q0 21 1 60.5t1 59t-1 52.5 t-5.5 51t-11.5 43.5t-19 40.5t-29 31.5t-41 28t-55 19.5z" />
<glyph unicode="~" horiz-adv-x="1011" d="M60.5 567.5q11.5 60.5 46 101.5t81 62t99.5 22q42 1 92.5 -19.5t95 -50t87 -59.5t82 -51.5t65.5 -22.5q42 -1 73.5 21.5t41.5 65.5t-18 106h138q21 -83 9.5 -144.5t-49.5 -102t-88.5 -60t-107.5 -19.5q-51 0 -114 31t-112 68.5t-104 69.5t-92 34q-56 2 -83 -45.5 t-4 -147.5h-134q-16 80 -4.5 140.5z" />
<glyph unicode="&#xa1;" horiz-adv-x="604" d="M92 0l46 694l93 272h144l91 -272l46 -694h-420zM122 1281q0 77 54 131t131 54q76 0 130 -54t54 -131t-53.5 -130.5t-130.5 -53.5t-131 54t-54 130z" />
<glyph unicode="&#xa2;" horiz-adv-x="1183" d="M31 713q0 99 27.5 181t72 138t107 99t125.5 67.5t135 40t129 20t112 4.5l14 172l98 -2l-15 -174q165 -14 274 -59l-23 -301h-12q-37 130 -99 192.5t-147 77.5l-76 -921q67 2 113.5 16t80 39t58 72t41.5 103t35 145h13l46 -283q-102 -174 -394 -180l-15 -178l-94 6l14 174 q-290 18 -455 162.5t-165 388.5zM413 720q-1 -197 61.5 -315.5t184.5 -147.5l73 918q-321 -14 -319 -455z" />
<glyph unicode="&#xa3;" horiz-adv-x="1269" d="M61 0q31 60 48.5 99t49 126t49 195.5t21.5 232.5h-167l35 114h132q-11 662 566 695q151 9 259.5 -24.5t154.5 -92.5l-97 -289h-20q-8 161 -58.5 234t-163.5 70q-81 -2 -130.5 -44.5t-70 -120t-25.5 -186t5 -242.5h370l-43 -114h-324q-1 -124 -21 -213t-59 -143.5t-85 -85 t-111 -49.5q27 8 73.5 5.5t75.5 -6.5t81 -11.5t90 -10.5q170 -14 313.5 60t231.5 250h21l-94 -400q-94 -43 -239.5 -60t-236.5 -5q-62 8 -199.5 37.5t-211.5 27.5q-36 -1 -110.5 -27.5t-88.5 -41.5h-21v20z" />
<glyph unicode="&#xa4;" horiz-adv-x="1107" d="M102 315l120 120q-108 124 -107 288t110 287l-123 122l44 44l123 -123q123 105 285 104t284 -107l126 126l43 -44l-126 -125q106 -122 107 -284t-104 -285l123 -123l-43 -44l-123 123q-123 -109 -287 -109.5t-288 106.5l-120 -120zM178 721q0 -155 109 -265 q72 -72 168.5 -97.5t193 0t168.5 97.5q109 110 109 265t-109 265q-72 72 -168.5 97.5t-193 0t-168.5 -97.5q-109 -110 -109 -265z" />
<glyph unicode="&#xa5;" horiz-adv-x="1492" d="M-92 1413v21h791v-21h-26q-45 0 -69.5 -42t-2.5 -85l282 -506l291 506q23 42 -3 84.5t-69 42.5h-26v21h511v-21h-29q-61 0 -117 -34.5t-90 -85.5l-268 -423h192v-102h-257l-69 -109v-14h326v-102h-326v-394q1 -53 39.5 -91t92.5 -38h26v-20h-735v20h26q53 0 92 37.5 t40 90.5v395h-330v102h330v15l-66 108h-264v102h201l-261 426q-32 49 -88 83t-116 34h-28z" />
<glyph unicode="&#xa6;" horiz-adv-x="542" d="M205 348h133v-717h-133v717zM205 717v717h133v-717h-133z" />
<glyph unicode="&#xa7;" horiz-adv-x="1097" d="M51 811q0 129 46.5 250t130.5 209.5t201.5 142t248.5 53.5q84 0 155 -21.5t110.5 -57t52 -81t-20.5 -92.5q-24 -37 -51 -54t-52 -13.5t-52.5 17t-53.5 36.5t-53.5 46.5t-52.5 46t-52 35t-51 14.5t-49 -17t-28 -47t13.5 -62t42 -69t62 -75t69 -72.5t68 -68.5t53.5 -57 q114 -130 179 -274t77.5 -275t-21.5 -251t-108.5 -208t-194 -140t-267.5 -52q-87 0 -164.5 21t-127 57t-67.5 83t15 99q24 40 52 57.5t56.5 15t58 -17t59.5 -38t60 -48.5t59.5 -47.5t56.5 -36.5t54.5 -14t50.5 19q20 17 25 37.5t-5 46t-29.5 54t-52 63t-69 71t-83.5 81.5 q-69 66 -105 102q-123 122 -184.5 262.5t-61.5 269.5zM246 1005.5q-4 -40.5 4 -83.5t17 -74.5t32.5 -71.5t40.5 -65.5t51 -64t54 -59.5t59 -61q82 -84 125 -133t98.5 -127.5t74 -154t6.5 -154.5q28 57 38.5 113t8.5 103t-22.5 100t-41.5 91.5t-62 91t-70 85t-79 86.5 q-58 62 -83.5 90.5t-64.5 74.5t-54 72.5t-35.5 67t-27.5 76.5t-12 82.5t-5 103.5q-23 -51 -35.5 -99.5t-16.5 -89z" />
<glyph unicode="&#xa8;" d="M155 1514q0 62 44.5 106.5t106.5 44.5t106 -44.5t44 -106.5t-44 -106.5t-106 -44.5t-106.5 44.5t-44.5 106.5zM692 1514q0 62 44.5 106.5t106.5 44.5t106.5 -44.5t44.5 -106.5t-44.5 -106.5t-106.5 -44.5t-106.5 44.5t-44.5 106.5z" />
<glyph unicode="&#xa9;" horiz-adv-x="1736" d="M123 717q0 152 59 290t158.5 237.5t237.5 158.5t290 59t290 -59t238 -158.5t159 -237.5t59 -290q0 -203 -100 -374.5t-271.5 -271.5t-374.5 -100q-152 0 -290 59t-237.5 159t-158.5 238t-59 290zM230 717q0 -130 50.5 -248t136 -204t203.5 -136.5t248 -50.5t248 50.5 t204 136.5t136.5 204t50.5 248t-50.5 248t-136.5 203.5t-204 136t-248 50.5q-173 0 -320 -85.5t-232.5 -232.5t-85.5 -320zM379 718q0 196 146 326t368 130q93 0 196 -23.5t175 -64.5l-12 -247h-12q-108 250 -335 250q-117 0 -182 -98t-65 -274q0 -175 66.5 -273t186.5 -98 q137 0 225 83t113 238h13l48 -220q-160 -187 -421 -187q-220 1 -365 132t-145 326z" />
<glyph unicode="&#xaa;" horiz-adv-x="798" d="M-10 772v9h8q52 0 83 47l237 473q58 128 61 152h8l332 -626q33 -46 82 -46h8v-9h-419v9h9q20 0 34 14t7 36l-33 68h-205l-29 -62q-12 -25 1.5 -40.5t36.5 -15.5h9v-9h-230zM228 952h153l-76 158z" />
<glyph unicode="&#xab;" horiz-adv-x="1107" d="M82 598l460 -418l19 14l-162 404l160 395l-17 10zM508 598l460 -418l19 14l-162 404l160 395l-17 10z" />
<glyph unicode="&#xac;" d="M82 701v133h1068v-436h-133v303h-935z" />
<glyph unicode="&#xad;" horiz-adv-x="778" d="M61 598l21 82h614l21 -82l-21 -84h-614z" />
<glyph unicode="&#xae;" horiz-adv-x="501" d="M20 1204q0 96 68 163.5t164 67.5t163.5 -67.5t67.5 -163.5t-67.5 -163.5t-163.5 -67.5t-164 67.5t-68 163.5zM69 1204q0 -79 52 -131t131 -52t130.5 52t51.5 131t-51.5 131t-130.5 52t-131 -52t-52 -131zM128 1085v4h5q9 0 15.5 6.5t6.5 15.5v194q0 9 -6.5 15t-15.5 6h-5 v5h90h41q37 0 63 -18.5t26 -48.5q0 -60 -63 -67q21 -5 62 -69q21 -32 43 -39v-4h-41q-13 0 -23.5 2.5t-18.5 5.5t-15.5 10t-12 11.5t-10 15t-8 15t-7.5 17t-7 15.5q-12 28 -19 28v4h22q24 2 29 32q3 18 3 26q-2 44 -43 44l-21 1v-201q0 -9 6.5 -15.5t15.5 -6.5h5v-4h-117z " />
<glyph unicode="&#xaf;" d="M308 1440v174h594v-174h-594z" />
<glyph unicode="&#xb0;" horiz-adv-x="485" d="M41 1159q0 83 59.5 142.5t142.5 59.5t142.5 -59.5t59.5 -142.5t-59.5 -142.5t-142.5 -59.5t-142.5 59.5t-59.5 142.5zM161 1159q0 -35 23.5 -58.5t58.5 -23.5t58.5 23.5t23.5 58.5t-23.5 58.5t-58.5 23.5t-58.5 -23.5t-23.5 -58.5z" />
<glyph unicode="&#xb1;" horiz-adv-x="985" d="M82 102v134h823v-134h-823zM82 711v133h345v345h133v-345h345v-133h-345v-345h-133v345h-345z" />
<glyph unicode="&#xb2;" horiz-adv-x="858" d="M61 1380q55 46 145 69.5t189 23.5q151 0 251 -62t100 -168q0 -61 -32 -120t-83 -104t-100 -76.5t-96 -53.5h189q104 0 162 126h11l-85 -384h-634v11q25 34 84 112.5t86 116t70.5 103.5t63.5 109t36.5 96.5t16.5 99.5q0 63 -36.5 99t-97.5 29q-128 -15 -128 -262h-11z" />
<glyph unicode="&#xb3;" horiz-adv-x="763" d="M41 1385q49 37 133.5 58t183.5 20q147 -2 227 -52.5t80 -147.5q0 -72 -42 -111t-103 -41q76 -16 129 -67.5t53 -152.5q0 -86 -42.5 -151t-112.5 -98.5t-154 -44.5t-173.5 6.5t-164.5 58.5l3 10q145 -3 244 61t99 181q0 49 -19 87t-49.5 58.5t-62.5 30.5t-65 11l2 11 q77 -4 128.5 54t43.5 135q-7 61 -46 83t-89 15q-64 -9 -88 -64.5t-22 -177.5h-11z" />
<glyph unicode="&#xb4;" d="M417 1536q39 90 133.5 197t183.5 183q71 -30 112 -79.5t62 -124.5q-103 -68 -236 -122.5t-241 -67.5z" />
<glyph unicode="&#xb6;" horiz-adv-x="1105" d="M102 1059q2 169 117 271.5t285 103.5h372h15.5h18.5t18 1t21 3.5t21.5 6.5t24 10.5t24 15.5t26.5 21.5t27 28.5l14 -12q-11 -60 -66.5 -115t-134.5 -62v-1031q0 -114 -38 -198.5t-101 -129.5l-19 17q27 45 39 92t14 81t2 109v24v1036h-170v-1332q0 -63 -10.5 -121 t-34.5 -114.5t-68 -101.5t-105 -71l-14 19q84 87 106.5 161t17.5 228v682q-174 0 -289 103t-113 274z" />
<glyph unicode="&#xb7;" horiz-adv-x="512" d="M72 727q0 77 54 130.5t130 53.5t130 -53.5t54 -130.5t-54 -130.5t-130 -53.5t-130 53.5t-54 130.5z" />
<glyph unicode="&#xb8;" d="M439 -401l2 20q74 0 138 39t74 117q5 40 -30.5 65t-81.5 25.5t-87 -12.5l-11 20l100 129h126l-87 -100q29 10 70.5 9.5t83 -11.5t68 -44t21.5 -83q-6 -70 -68 -122t-145.5 -65t-172.5 13z" />
<glyph unicode="&#xb9;" horiz-adv-x="598" d="M61 1382h9q41 0 62.5 -19.5t21.5 -67.5v-593q0 -25 -18 -42.5t-43 -17.5h-23v-11h468v11h-24q-25 0 -43 17.5t-18 42.5v762h-11q-63 -30 -189.5 -50t-191.5 -21v-11z" />
<glyph unicode="&#xba;" horiz-adv-x="819" d="M41 1112q0 166 94.5 254t273.5 88q180 0 274.5 -88t94.5 -254q0 -164 -94.5 -252t-274.5 -88q-179 0 -273.5 88t-94.5 252zM287 1112q0 -288 122 -288q65 0 93 72t28 216t-28 216.5t-93 72.5q-64 0 -93 -73t-29 -216z" />
<glyph unicode="&#xbb;" horiz-adv-x="1107" d="M123 194l18 -14l461 418l-461 405l-16 -10l159 -395zM549 194l18 -14l461 418l-461 405l-16 -10l159 -395z" />
<glyph unicode="&#xbc;" horiz-adv-x="1574" d="M41 1382v11q65 1 191.5 21t189.5 50h11v-762q0 -25 18 -42.5t43 -17.5h23v-11h-468v11h23q25 0 43.5 17.5t18.5 42.5v593q0 48 -21.5 67.5t-62.5 19.5h-9zM244 23l97 -64l979 1456l-97 66zM673 189v12l682 636h11v-500h54q59 0 83 57h12l-42 -205h-107v-111 q0 -27 20.5 -46.5t47.5 -19.5h14v-12h-458v12h13q27 0 47 18.5t21 45.5v113h-398zM917 337h155v136z" />
<glyph unicode="&#xbd;" horiz-adv-x="1740" d="M41 1382h9q41 0 62 -19.5t21 -67.5v-593q0 -25 -18 -42.5t-43 -17.5h-23v-11h468v11h-23q-25 0 -43 17.5t-18 42.5v762h-11q-63 -30 -189.5 -50t-191.5 -21v-11zM199 23l97 -64l979 1456l-97 66zM923 749q55 46 145 70t189 24q151 0 251 -62.5t100 -168.5q0 -61 -32 -120 t-83 -104t-100 -76.5t-96 -53.5h189q104 0 162 127h11l-85 -385h-634v11q24 33 83.5 112.5t86.5 116.5t70.5 103.5t63.5 109.5t36.5 96.5t16.5 99.5q0 63 -36.5 98.5t-97.5 28.5q-128 -15 -128 -261h-11z" />
<glyph unicode="&#xbe;" horiz-adv-x="1718" d="M50 1385q49 37 134 58t184 20q147 -2 227 -52.5t80 -147.5q0 -72 -42 -111t-103 -41q76 -16 129 -67.5t53 -152.5q0 -86 -42.5 -151t-112.5 -98.5t-154 -44.5t-173.5 6.5t-164.5 58.5l2 10q146 -3 245 61t99 181q0 49 -19 87t-50 58.5t-63 30.5t-65 11l2 11 q77 -4 128.5 54t43.5 135q-7 61 -46 83t-89 15q-64 -9 -88 -64.5t-22 -177.5h-11zM385 23l97 -64l979 1456l-96 66zM837 189v12l681 636h12v-500h53q59 0 83 57h13l-42 -205h-107v-111q0 -27 20.5 -46t47.5 -19h13v-13h-457v13h13q28 0 47.5 18t20.5 45v113h-398zM1081 337 h154v136z" />
<glyph unicode="&#xbf;" horiz-adv-x="1071" d="M61 334q0 62 16.5 112t57.5 99.5t91 92t136 105.5q35 25 50.5 37.5t39.5 38t30.5 46t4.5 51.5t-20 65l18 12q97 -25 156 -91t49 -163q-5 -46 -26.5 -83.5t-48.5 -66t-53.5 -61.5t-43.5 -87t-16 -126q2 -117 49.5 -179t136.5 -62q199 0 199 315h20l103 -235 q-47 -82 -167.5 -132.5t-285.5 -50.5q-240 0 -368 95t-128 268zM364 1278q0 76 54 130t129 54q77 0 131.5 -54t54.5 -130t-54.5 -130t-131.5 -54q-75 0 -129 54t-54 130z" />
<glyph unicode="&#xc0;" horiz-adv-x="1474" d="M-82 0v20h19q46 0 92.5 28t77.5 83l477 1046q108 230 117 306h19l649 -1350q33 -57 78.5 -85t92.5 -28h17v-20h-776v20h18q45 0 73.5 36t5.5 93l-80 191h-437l-82 -191q-25 -57 3.5 -93t74.5 -36h18v-20h-457zM278 1755q21 74 62 124t113 80q88 -76 182.5 -183 t133.5 -197l-14 -15q-108 13 -241 68t-236 123zM406 442h349l-171 410z" />
<glyph unicode="&#xc1;" horiz-adv-x="1474" d="M-82 0v20h18q46 0 93 28t78 83l477 1046q108 230 117 306h19l649 -1350q33 -57 78.5 -85t92.5 -28h17v-20h-776v20h18q45 0 73.5 36t5.5 93l-80 191h-437l-82 -191q-25 -57 3.5 -93t74.5 -36h18v-20h-457zM406 442h349l-171 410zM665 1573q39 90 133.5 197t183.5 183 q72 -30 113 -80t62 -124q-103 -68 -236 -122.5t-241 -67.5z" />
<glyph unicode="&#xc2;" horiz-adv-x="1474" d="M-82 0v20h18q46 0 93 28t78 83l477 1046q108 230 117 306h19l649 -1350q33 -57 78.5 -85t92.5 -28h17v-20h-776v20h18q45 0 73.5 36t5.5 93l-80 191h-437l-82 -191q-25 -57 3.5 -93t74.5 -36h18v-20h-457zM354 1549l14 -16l343 131l364 -132l14 17l-365 359h-24zM406 442 h349l-171 410z" />
<glyph unicode="&#xc3;" horiz-adv-x="1474" d="M-82 0v20h18q46 0 92.5 28t77.5 83l478 1046q108 230 117 306h19l648 -1350q33 -57 79 -85t93 -28h17v-20h-776v20h18q45 0 73.5 36t5.5 93l-80 191h-437l-82 -191q-25 -57 3.5 -93t74.5 -36h18v-20h-457zM349.5 1634q-2.5 -35 6.5 -63h25q17 41 72 78t117 27 q54 -8 111.5 -36.5t110.5 -51.5t108 -23q49 0 92 16.5t72 43.5t49.5 61.5t29.5 70t8 68.5t-12 58h-25q-13 -32 -68.5 -65t-117.5 -24q-61 8 -120.5 35.5t-110.5 50t-101 22.5q-48 0 -89.5 -17t-68.5 -44.5t-48.5 -63t-29.5 -72t-10.5 -71.5zM406 442h349l-171 410z" />
<glyph unicode="&#xc4;" horiz-adv-x="1474" d="M-82 0v20h18q46 0 93 28t78 83l477 1046q108 230 117 306h19l649 -1350q33 -57 78.5 -85t92.5 -28h17v-20h-776v20h18q45 0 73.5 36t5.5 93l-80 191h-437l-82 -191q-25 -57 3.5 -93t74.5 -36h18v-20h-457zM287 1698q0 62 44.5 106.5t106.5 44.5t106.5 -44.5t44.5 -106.5 t-44.5 -106.5t-106.5 -44.5t-106.5 44.5t-44.5 106.5zM406 442h349l-171 410zM825 1698q0 62 44.5 106.5t106.5 44.5t106.5 -44.5t44.5 -106.5t-44.5 -106.5t-106.5 -44.5t-106.5 44.5t-44.5 106.5z" />
<glyph unicode="&#xc5;" horiz-adv-x="1474" d="M-82 0v21h19q50 0 99.5 32t79.5 96l468 1008q82 176 108 264q-77 5 -130.5 47.5t-52.5 105.5q-1 67 58 109.5t145 43.5q85 -1 143 -42.5t59 -108.5q-1 -61 -50.5 -104t-123.5 -51l620 -1271q32 -65 80.5 -97t99.5 -32h17v-21h-776v20h18q45 0 73 35.5t6 91.5l-83 193 h-431l-87 -194q-23 -55 6 -90.5t74 -35.5h18v-20h-457zM409 442h342l-168 394zM624 1574q0 -46 25 -76.5t62 -30.5q38 0 63.5 30.5t25.5 76.5q0 47 -25.5 77.5t-63.5 29.5q-37 1 -62 -30t-25 -77z" />
<glyph unicode="&#xc6;" horiz-adv-x="2082" d="M-68 0v21h19q45 0 87 29.5t89 94.5l801 1167q26 42 11.5 71.5t-55.5 29.5h-10v21h808q64 1 139 12.5t105 24.5v-423l-21 1v16q0 121 -67 191t-188 74h-277v-578h210q95 5 155 67.5t60 156.5v9l20 1v-570l-20 1v9q0 94 -59 156.5t-153 67.5h-213v-546h232q149 0 263 98 t162 272h21l-78 -474h-1141l1 20h20q41 0 70 29.5t30 70.5v530h-320l-310 -501q-34 -56 -1.5 -92.5t80.5 -36.5h18v-20h-488zM697 752h257v414z" />
<glyph unicode="&#xc7;" horiz-adv-x="1624" d="M72 719q0 350 236.5 546.5t660.5 196.5q304 0 525 -93l-20 -392h-17q-60 207 -173 295t-281 88q-227 0 -354 -168t-127 -467q0 -301 117.5 -473t327.5 -178q101 0 173.5 17.5t127 53.5t93.5 100t66 147.5t50 205.5h17l48 -373q-68 -114 -208 -184t-367 -70h-24l-78 -88 q29 10 71 9.5t83 -11.5t68 -44t22 -83q-6 -70 -68 -122t-145.5 -65t-172.5 13l1 21q46 0 90 14.5t80 51t43 89.5q5 40 -30.5 65t-82 25.5t-87.5 -12.5l-10 21l97 122q-354 35 -553 227.5t-199 514.5z" />
<glyph unicode="&#xc8;" horiz-adv-x="1366" d="M61 0l1 20h26q54 0 92 38t39 91v1136q-2 53 -39.5 90.5t-91.5 37.5h-26l-1 21h907q64 1 139 12.5t105 24.5v-423l-21 1v16q0 121 -67 191t-188 74h-297v-572h223q97 1 159.5 64t62.5 160v10h20v-570h-20v10q0 96 -61 158.5t-158 65.5h-226v-552h253q149 0 263 98t162 272 h20l-78 -474h-1198zM319 1755q24 75 66.5 124.5t115.5 79.5q87 -77 178 -183.5t126 -196.5l-15 -15q-107 13 -238.5 68t-232.5 123z" />
<glyph unicode="&#xc9;" horiz-adv-x="1366" d="M62 0v20h26q54 0 92 38t39 91v1136q-2 53 -39.5 90.5t-91.5 37.5h-26v21h906q64 1 139 12.5t105 24.5v-423l-21 1v16q0 121 -67 191t-188 74h-297v-572h223q97 1 159.5 64t62.5 160v10h20v-570h-20v10q0 96 -61 158.5t-158 65.5h-226v-552h253q149 0 263 98t162 272h20 l-78 -474h-1197zM645 1573q39 90 133.5 197t183.5 183q72 -30 113 -80t62 -124q-103 -68 -236 -122.5t-241 -67.5z" />
<glyph unicode="&#xca;" horiz-adv-x="1366" d="M61 0l1 20h26q54 0 92 38t39 91v1136q-2 53 -39.5 90.5t-91.5 37.5h-26l-1 21h907q64 1 139 12.5t105 24.5v-423l-21 1v16q0 121 -67 191t-188 74h-297v-572h223q97 1 159.5 64t62.5 160v10h20v-570h-20v10q0 96 -61 158.5t-158 65.5h-226v-552h253q149 0 263 98t162 272 h20l-78 -474h-1198zM334 1549l14 -16l343 131l364 -132l14 17l-365 359h-24z" />
<glyph unicode="&#xcb;" horiz-adv-x="1366" d="M61 0l1 20h26q54 0 92 38t39 91v1136q-2 53 -39.5 90.5t-91.5 37.5h-26v21h906q64 1 139 12.5t105 24.5v-423l-21 1v16q0 121 -67 191t-188 74h-297v-572h223q97 1 159.5 64t62.5 160v10h20v-570h-20v10q0 96 -61 158.5t-158 65.5h-226v-552h253q149 0 263 98t162 272h20 l-78 -474h-1198zM267 1698q0 62 44.5 106.5t106.5 44.5t106.5 -44.5t44.5 -106.5t-44.5 -106.5t-106.5 -44.5t-106.5 44.5t-44.5 106.5zM805 1698q0 62 44.5 106.5t106.5 44.5t106.5 -44.5t44.5 -106.5t-44.5 -106.5t-106.5 -44.5t-106.5 44.5t-44.5 106.5z" />
<glyph unicode="&#xcc;" horiz-adv-x="856" d="M11 1755q21 75 62 124.5t112 79.5q89 -76 183.5 -183t133.5 -197l-14 -15q-108 13 -241 68t-236 123zM61 0l1 20h26q54 0 92 38t39 91v1136q-2 53 -40 90.5t-91 37.5h-26l-1 21h735v-21h-26q-53 0 -91.5 -37t-39.5 -90v-1137q1 -53 39 -91t92 -38h26v-20h-735z" />
<glyph unicode="&#xcd;" horiz-adv-x="856" d="M61 0l1 20h26q54 0 92 38t39 91v1136q-2 53 -40 90.5t-91 37.5h-26v21h734v-21h-26q-53 0 -91.5 -37t-39.5 -90v-1137q1 -53 39 -91t92 -38h26v-20h-735zM377 1573q39 90 133.5 197t183.5 183q72 -30 113 -80t62 -124q-103 -68 -236 -122.5t-241 -67.5z" />
<glyph unicode="&#xce;" horiz-adv-x="856" d="M61 0l1 20h26q54 0 92 38t39 91v1136q-2 53 -40 90.5t-91 37.5h-26l-1 21h735v-21h-26q-53 0 -91.5 -37t-39.5 -90v-1137q1 -53 39 -91t92 -38h26v-20h-735zM66 1549l15 -16l342 131l364 -132l15 17l-366 359h-24z" />
<glyph unicode="&#xcf;" horiz-adv-x="856" d="M0 1698q0 62 44 106.5t106 44.5t106.5 -44.5t44.5 -106.5t-44.5 -106.5t-106.5 -44.5t-106 44.5t-44 106.5zM61 0l1 20h26q54 0 92 38t39 91v1136q-2 53 -40 90.5t-91 37.5h-26l-1 21h735v-21h-26q-53 0 -91.5 -37t-39.5 -90v-1137q1 -53 39 -91t92 -38h26v-20h-735z M537 1698q0 62 44.5 106.5t106.5 44.5t106.5 -44.5t44.5 -106.5t-44.5 -106.5t-106.5 -44.5t-106.5 44.5t-44.5 106.5z" />
<glyph unicode="&#xd0;" horiz-adv-x="1724" d="M61 0l1 20h26q54 0 92 38t39 91v517h-158v102h158v528q0 49 -39.5 83t-91.5 34h-26v21l775 -1q385 0 601 -189.5t216 -527.5t-216 -527t-601 -189h-776zM639 103h157q194 0 306 162.5t112 450.5t-112 451.5t-306 163.5h-157v-563h221v-102h-221v-563z" />
<glyph unicode="&#xd1;" horiz-adv-x="1804" d="M41 0v20h38q52 0 89 36t38 88v1064q0 71 -7 135t-14 93l-7 28h21l1 -2l979 -870v697q-1 52 -38 88t-89 36h-37l-1 21h750v-21h-38q-52 0 -88.5 -35.5t-38.5 -86.5v-1058q0 -75 6.5 -140.5t13.5 -93.5l7 -28h-18l-982 873v-699q1 -52 37.5 -88.5t88.5 -36.5h38v-20h-749z M478.5 1634q-2.5 -35 6.5 -63h25q17 41 72 78t117 27q54 -8 111.5 -36.5t110.5 -51.5t108 -23q49 0 92 16.5t72 43.5t49.5 61.5t29.5 70t8 68.5t-12 58h-25q-13 -32 -68.5 -65t-117.5 -24q-61 8 -120.5 35.5t-110.5 50t-101 22.5q-48 0 -89.5 -17t-68.5 -44.5t-48.5 -63 t-29.5 -72t-10.5 -71.5z" />
<glyph unicode="&#xd2;" horiz-adv-x="1853" d="M72 717q0 351 226.5 548t623.5 197t624 -197t227 -548t-227 -548.5t-624 -197.5t-623.5 197.5t-226.5 548.5zM486 1783q21 75 62.5 125t112.5 80q88 -76 183 -183.5t134 -197.5l-15 -14q-108 13 -241 67.5t-236 122.5zM513 717q0 -305 106 -474t303 -169t303.5 169 t106.5 474t-106.5 474t-303.5 169t-303 -169t-106 -474z" />
<glyph unicode="&#xd3;" horiz-adv-x="1853" d="M72 717q0 351 226.5 548t623.5 197t624 -197t227 -548t-227 -548.5t-624 -197.5t-623.5 197.5t-226.5 548.5zM524 717q0 -303 105 -473t293 -170t293.5 170t105.5 473t-105.5 473t-293.5 170t-293 -170t-105 -473zM873 1602q39 90 133.5 197t183.5 183q72 -30 113 -80 t62 -124q-103 -68 -236 -123t-241 -68z" />
<glyph unicode="&#xd4;" horiz-adv-x="1853" d="M72 717q0 351 226.5 548t623.5 197t624 -197t227 -548t-227 -548.5t-624 -197.5t-623.5 197.5t-226.5 548.5zM524 717q0 -303 105 -473t293 -170t293.5 170t105.5 473t-105.5 473t-293.5 170t-293 -170t-105 -473zM562 1578l14 -17l343 132l364 -132l14 16l-365 360h-24z " />
<glyph unicode="&#xd5;" horiz-adv-x="1853" d="M72 717q0 351 226.5 548t623.5 197t624 -197t227 -548t-227 -548.5t-624 -197.5t-623.5 197.5t-226.5 548.5zM524 717q0 -303 105 -473t293 -170t293.5 170t105.5 473t-105.5 473t-293.5 170t-293 -170t-105 -473zM557.5 1663q-2.5 -35 6.5 -63h25q17 40 72 77t117 27 q54 -8 111.5 -36.5t110.5 -51t108 -22.5q49 0 92 16.5t72 43.5t49.5 61t29.5 69.5t8 68.5t-12 58h-25q-13 -32 -68.5 -65t-117.5 -24q-62 8 -121 36t-110 50.5t-101 22.5q-48 0 -89.5 -17t-68.5 -44.5t-48.5 -63t-29.5 -72t-10.5 -71.5z" />
<glyph unicode="&#xd6;" horiz-adv-x="1853" d="M72 717q0 351 226.5 548t623.5 197t624 -197t227 -548t-227 -548.5t-624 -197.5t-623.5 197.5t-226.5 548.5zM495 1727q0 62 44.5 106.5t106.5 44.5t106.5 -44.5t44.5 -106.5t-44.5 -106.5t-106.5 -44.5t-106.5 44.5t-44.5 106.5zM524 717q0 -303 105 -473t293 -170 t293.5 170t105.5 473t-105.5 473t-293.5 170t-293 -170t-105 -473zM1033 1727q0 62 44.5 106.5t106.5 44.5t106.5 -44.5t44.5 -106.5t-44.5 -106.5t-106.5 -44.5t-106.5 44.5t-44.5 106.5z" />
<glyph unicode="&#xd7;" horiz-adv-x="839" d="M82 391l244 243l-244 244l94 94l244 -244l244 244l94 -94l-244 -244l244 -243l-94 -95l-244 244l-244 -244z" />
<glyph unicode="&#xd8;" horiz-adv-x="1853" d="M72 717q0 351 227 548t624 197q265 0 457 -90l99 116l89 -72l-87 -101q142 -96 217 -247.5t75 -350.5q0 -351 -227 -548.5t-624 -197.5q-291 0 -498 111l-111 -129l-90 74l103 119q-254 198 -254 571zM513 717q0 -174 37 -310l675 785q-106 168 -303 168t-303 -169 t-106 -474zM597 283q106 -209 325 -209q197 0 303.5 169t106.5 474q0 214 -53 362z" />
<glyph unicode="&#xd9;" horiz-adv-x="1730" d="M61 1413v21h703v-21h-33q-44 0 -75.5 -28t-32.5 -70v-782q0 -215 98.5 -335.5t274.5 -120.5t275 113.5t100 316.5v808q-2 42 -33 70t-75 28h-34v21h461v-21h-34q-44 0 -74.5 -27.5t-33.5 -69.5v-789q0 -262 -160 -409t-453 -147q-368 0 -550 143.5t-182 408.5v789 q-1 44 -32 72.5t-76 28.5h-34zM553 1755q21 75 62 124.5t112 79.5q89 -76 183.5 -183t133.5 -197l-14 -15q-108 13 -241 68t-236 123z" />
<glyph unicode="&#xda;" horiz-adv-x="1730" d="M61 1413v21h703v-21h-33q-44 0 -75.5 -28t-32.5 -70v-782q0 -215 98.5 -335.5t274.5 -120.5t275 113.5t100 316.5v808q-2 42 -33 70t-75 28h-34v21h461v-21h-34q-44 0 -74.5 -27.5t-33.5 -69.5v-789q0 -262 -160 -409t-453 -147q-368 0 -550 143.5t-182 408.5v789 q-1 44 -32 72.5t-76 28.5h-34zM940 1573q39 90 133.5 197t183.5 183q71 -30 112 -79.5t62 -124.5q-103 -68 -236 -122.5t-241 -67.5z" />
<glyph unicode="&#xdb;" horiz-adv-x="1730" d="M61 1413v21h703v-21h-33q-44 0 -75.5 -28t-32.5 -70v-782q0 -215 98.5 -335.5t274.5 -120.5t275 113.5t100 316.5v808q-2 42 -33 70t-75 28h-34v21h461v-21h-34q-44 0 -74.5 -27.5t-33.5 -69.5v-789q0 -262 -160 -409t-453 -147q-368 0 -550 143.5t-182 408.5v789 q-1 44 -32 72.5t-76 28.5h-34zM628 1549l15 -16l342 131l365 -132l14 17l-365 359h-25z" />
<glyph unicode="&#xdc;" horiz-adv-x="1730" d="M61 1413v21h703v-21h-33q-44 0 -75.5 -28t-32.5 -70v-782q0 -215 98.5 -335.5t274.5 -120.5t275 113.5t100 316.5v808q-2 42 -33 70t-75 28h-34v21h461v-21h-34q-44 0 -74.5 -27.5t-33.5 -69.5v-789q0 -262 -160 -409t-453 -147q-368 0 -550 143.5t-182 408.5v789 q-1 44 -32 72.5t-76 28.5h-34zM562 1698q0 62 44.5 106.5t106.5 44.5t106.5 -44.5t44.5 -106.5t-44.5 -106.5t-106.5 -44.5t-106.5 44.5t-44.5 106.5zM1100 1698q0 62 44.5 106.5t106.5 44.5t106.5 -44.5t44.5 -106.5t-44.5 -106.5t-106.5 -44.5t-106.5 44.5t-44.5 106.5z " />
<glyph unicode="&#xdd;" horiz-adv-x="1492" d="M-92 1413v21h791v-21h-26q-45 0 -69.5 -42t-2.5 -85l282 -506l291 506q23 42 -3 84.5t-69 42.5h-26v21h511v-21h-29q-61 0 -117 -34.5t-90 -85.5l-401 -634v-510q1 -53 39 -91t92 -38h26v-20h-735l1 20h25q53 0 92 37.5t40 90.5v512l-390 636q-32 49 -87.5 83t-115.5 34 h-29zM842 1573q39 90 133.5 197t183.5 183q71 -30 112 -79.5t62 -124.5q-103 -68 -236 -122.5t-241 -67.5z" />
<glyph unicode="&#xde;" horiz-adv-x="1447" d="M87 0l1 20h26q54 0 92 38t39 91v1136q-2 53 -40 90.5t-91 37.5h-26l-1 21h735v-21h-26q-53 0 -91.5 -37t-39.5 -90v-143h187q148 0 258 -31t174 -86t96 -122.5t37 -150.5q5 -93 -23 -175t-78.5 -140.5t-121.5 -96.5t-149 -47.5t-163.5 13t-162.5 77.5v19l10 1q10 2 28 7 t40 13.5t46.5 27t47 42.5t42.5 63.5t32 87.5q15 63 12 123q-5 126 -72 199t-183 73h-57v-891q1 -53 39 -91t92 -38h26v-20h-735z" />
<glyph unicode="&#xdf;" horiz-adv-x="2248" d="M90.5 273q21.5 108 71.5 168h11q-4 -95 37.5 -178t129.5 -137.5t205 -55.5q107 -1 160.5 46t53.5 113q0 57 -48 104.5t-156 94.5l-215 99q-132 56 -193.5 163t-41.5 246q22 159 121.5 238t267.5 79q127 0 309 -18h138l-50 -298h-13q0 99 -72 160t-194 61 q-94 0 -148.5 -36.5t-61.5 -99.5q-4 -33 7.5 -58t40.5 -45.5t52 -31.5t66 -29l266 -121q110 -46 169 -137.5t48 -226.5q-16 -196 -159.5 -297t-398.5 -101q-150 0 -251.5 33.5t-141.5 83.5q-31 73 -9.5 181zM1215.5 273q21.5 108 71.5 168h11q-4 -95 37.5 -178t129.5 -137.5 t205 -55.5q107 -1 160 46t53 113q0 57 -47.5 105t-155.5 94l-216 99q-132 56 -193.5 163t-41.5 246q22 158 122 237.5t268 79.5q126 0 308 -18h138l-49 -298h-14q0 99 -72 160t-194 61q-94 0 -148.5 -36.5t-61.5 -99.5q-4 -32 7.5 -57.5t41 -46t52 -31.5t66.5 -29l265 -121 q110 -46 169 -137.5t48 -226.5q-16 -196 -159.5 -297t-398.5 -101q-150 0 -251.5 33.5t-141.5 83.5q-30 73 -8.5 181z" />
<glyph unicode="&#xe0;" horiz-adv-x="1294" d="M-86 0v20h16q43 0 86.5 25t69.5 75l422 911q98 213 106 272h16l579 -1178q27 -53 70 -79t89 -26h16v-20h-719v20h16q41 0 65.5 28.5t3.5 76.5l-59 135h-381l-61 -140q-17 -45 8 -72.5t64 -27.5h16v-20h-423zM187 1550q21 74 62 124t113 80q89 -76 183.5 -183t133.5 -197 l-15 -14q-108 13 -241 67.5t-236 122.5zM351 353h299l-150 343z" />
<glyph unicode="&#xe1;" horiz-adv-x="1294" d="M-86 0v20h16q43 0 86.5 25t69.5 75l421 911q100 216 107 272h16l579 -1178q27 -53 70 -79t89 -26h16v-20h-719v20h16q41 0 65.5 28.5t3.5 76.5l-59 135h-381l-61 -140q-17 -45 8 -72.5t64 -27.5h16v-20h-423zM351 353h299l-150 343zM575 1368q39 90 133.5 197t182.5 183 q72 -30 113 -80t62 -124q-103 -68 -236 -122.5t-241 -67.5z" />
<glyph unicode="&#xe2;" horiz-adv-x="1294" d="M-86 0v20h16q43 0 86.5 25t69.5 75l421 911q100 216 107 272h16l579 -1178q27 -53 70 -79t89 -26h16v-20h-719v20h16q41 0 65.5 28.5t3.5 76.5l-59 135h-381l-61 -140q-17 -45 8 -72.5t64 -27.5h16v-20h-423zM263 1344l15 -16l342 132l364 -132l15 16l-366 359h-24z M351 353h299l-150 343z" />
<glyph unicode="&#xe3;" horiz-adv-x="1294" d="M-86 0v20h16q43 0 86.5 25t69.5 75l421 911q100 216 107 272h16l579 -1178q27 -53 70 -79t89 -26h16v-20h-719v20h15q41 0 66 28.5t4 76.5l-59 135h-381l-61 -140q-17 -45 8 -72.5t64 -27.5h16v-20h-423zM258.5 1428.5q-2.5 -35.5 6.5 -62.5h26q17 41 71.5 78t116.5 27 q54 -8 111.5 -36.5t110.5 -51.5t108 -23q49 0 92 16.5t72 43.5t49.5 61.5t29.5 70t8 68.5t-12 58h-25q-13 -32 -68.5 -65t-117.5 -24q-62 8 -121 36t-110 50.5t-101 22.5q-48 0 -89.5 -17t-68.5 -44.5t-48.5 -63t-29.5 -72.5t-10.5 -72.5zM351 353h299l-150 343z" />
<glyph unicode="&#xe4;" horiz-adv-x="1294" d="M-86 0v20h16q43 0 86.5 25t69.5 75l421 911q100 216 107 272h16l579 -1178q27 -53 70 -79t89 -26h16v-20h-719v20h16q41 0 65.5 28.5t3.5 76.5l-59 135h-381l-61 -140q-17 -45 8 -72.5t64 -27.5h16v-20h-423zM197 1493q0 62 44.5 106.5t106.5 44.5t106 -44.5t44 -106.5 t-44 -106.5t-106 -44.5t-106.5 44.5t-44.5 106.5zM351 353h299l-150 343zM734 1493q0 62 44.5 106.5t106.5 44.5t106.5 -44.5t44.5 -106.5t-44.5 -106.5t-106.5 -44.5t-106.5 44.5t-44.5 106.5z" />
<glyph unicode="&#xe5;" horiz-adv-x="1294" d="M-86 0v20h16q43 0 86.5 25t69.5 75l421 911q100 216 107 272h16l579 -1178q27 -53 70 -79t89 -26h16v-20h-719v20h15q41 0 66 28.5t4 76.5l-59 135h-381l-61 -140q-17 -45 8 -72.5t64 -27.5h16v-20h-423zM351 353h299l-150 343zM379 1541q0 79 70 131t174 52 q103 0 171.5 -51t68.5 -128q0 -80 -69 -133.5t-173 -53.5t-173 52t-69 131zM517 1541q0 -51 30 -85.5t74 -34.5q46 0 76 34.5t30 85.5q0 53 -30 87.5t-76 34.5q-44 0 -74 -35t-30 -87z" />
<glyph unicode="&#xe6;" horiz-adv-x="1812" d="M-63 0v20h16q40 0 75 24.5t78 84.5l690 991q24 38 11 63.5t-49 25.5h-9v18h728q55 1 119.5 11t90.5 21v-384l-18 1v12q0 112 -62 176t-175 69h-220v-487h165q87 4 142 61.5t55 144.5v6h18v-515h-18v6q0 86 -54 143t-140 62h-168v-461h188q132 0 234.5 89t143.5 246h17 l-63 -428h-1016v20h17q36 0 61 23.5t26 58.5v452h-274l-270 -430q-26 -47 3 -75.5t70 -28.5h15v-20h-427zM604 646h216v345z" />
<glyph unicode="&#xe7;" horiz-adv-x="1368" d="M47 615q0 302 205 470t575 168q263 0 446 -73l-26 -349h-15q-53 180 -144 254.5t-226 74.5q-202 0 -299 -144t-97 -394q0 -251 94.5 -399t266.5 -155q72 0 124.5 9t93.5 33t69 55t51.5 85t39.5 113t35 149h15l53 -327q-122 -210 -481 -210l-80 -92q29 10 71 9.5t83 -11.5 t68 -44t22 -83q-6 -70 -68 -122t-145.5 -65t-172.5 13l1 21q46 0 90 14.5t80 51t43 89.5q5 40 -30.5 65t-82 25.5t-87.5 -12.5l-10 21l98 127q-312 27 -486 190.5t-174 442.5z" />
<glyph unicode="&#xe8;" horiz-adv-x="1177" d="M43 0v21h22q44 0 75.5 30.5t31.5 76.5v973q0 46 -31.5 76.5t-75.5 30.5h-22v21h798q51 0 115 10.5t89 20.5v-388h-20v11q0 118 -62.5 184t-178.5 67h-211v-481h157q91 1 147.5 60t56.5 150v5h21v-527h-21v7q0 91 -56.5 150t-147.5 60h-157v-463h198q122 0 222.5 89.5 t137.5 245.5h18l-58 -430h-1048zM153 1551q21 75 62 124.5t112 79.5q89 -76 183.5 -183t133.5 -197l-14 -14q-108 13 -241 67.5t-236 122.5z" />
<glyph unicode="&#xe9;" horiz-adv-x="1177" d="M43 0v21h22q44 0 75.5 30.5t31.5 76.5v973q0 46 -31.5 76.5t-75.5 30.5h-22v21h798q51 0 115 10.5t89 20.5v-388h-20v11q0 118 -62.5 184t-178.5 67h-211v-481h157q91 1 147.5 60.5t56.5 150.5v4h21v-527h-21v7q0 91 -56.5 150t-147.5 60h-157v-463h198q122 0 222.5 89.5 t137.5 245.5h18l-58 -430h-1048zM540 1369q39 90 133.5 197t183.5 183q71 -30 112 -79.5t62 -124.5q-103 -68 -236 -122.5t-241 -67.5z" />
<glyph unicode="&#xea;" horiz-adv-x="1177" d="M43 0v21h22q44 0 75.5 30.5t31.5 76.5v973q0 46 -31.5 76.5t-75.5 30.5h-22v21h798q51 0 115 10.5t89 20.5v-388h-20v11q0 118 -62.5 184t-178.5 67h-211v-481h157q91 1 147.5 60.5t56.5 150.5v4h21v-527h-21v7q0 91 -56.5 150t-147.5 60h-157v-463h198q122 0 222.5 89.5 t137.5 245.5h18l-58 -430h-1048zM228 1345l15 -16l342 131l365 -132l14 17l-365 359h-25z" />
<glyph unicode="&#xeb;" horiz-adv-x="1177" d="M43 0v21h22q44 0 75.5 30.5t31.5 76.5v973q0 46 -31.5 76.5t-75.5 30.5h-22v21h798q51 0 115 10.5t89 20.5v-388h-20v11q0 118 -62.5 184t-178.5 67h-211v-481h157q91 1 147.5 60.5t56.5 150.5v4h21v-527h-21v7q0 91 -56.5 150t-147.5 60h-157v-463h198q122 0 222.5 89.5 t137.5 245.5h18l-58 -430h-1048zM162 1494q0 62 44.5 106.5t106.5 44.5t106.5 -44.5t44.5 -106.5t-44.5 -106.5t-106.5 -44.5t-106.5 44.5t-44.5 106.5zM700 1494q0 62 44.5 106.5t106.5 44.5t106.5 -44.5t44.5 -106.5t-44.5 -106.5t-106.5 -44.5t-106.5 44.5t-44.5 106.5z " />
<glyph unicode="&#xec;" horiz-adv-x="741" d="M-70 1551q21 74 62 124t113 80q89 -76 183.5 -183t133.5 -197l-15 -14q-108 13 -241 67.5t-236 122.5zM43 0v20h22q43 0 74 31t31 77v975q-1 45 -31.5 75t-73.5 30h-22v21h656v-21h-21q-44 0 -74.5 -30.5t-31.5 -76.5l-1 -973q1 -46 32 -77t75 -31h22v-20h-657z" />
<glyph unicode="&#xed;" horiz-adv-x="741" d="M43 0v20h22q43 0 74 31t31 77v975q-1 45 -31.5 75t-73.5 30h-22v21h656v-21h-21q-44 0 -74.5 -30.5t-31.5 -76.5l-1 -973q1 -46 32 -77t75 -31h22v-20h-657zM317 1369q39 90 133.5 197t183.5 183q72 -30 113 -80t62 -124q-103 -68 -236 -122.5t-241 -67.5z" />
<glyph unicode="&#xee;" horiz-adv-x="741" d="M6 1345l14 -16l343 132l364 -132l14 16l-365 359h-24zM43 0v20h22q43 0 74 31t31 77v975q-1 45 -31.5 75t-73.5 30h-22v21h656v-21h-21q-44 0 -74.5 -30.5t-31.5 -76.5l-1 -973q1 -46 32 -77t75 -31h22v-20h-657z" />
<glyph unicode="&#xef;" horiz-adv-x="741" d="M-61 1494q0 62 44.5 106.5t106.5 44.5t106.5 -44.5t44.5 -106.5t-44.5 -106.5t-106.5 -44.5t-106.5 44.5t-44.5 106.5zM43 0v20h22q43 0 74 31t31 77v975q-1 45 -31.5 75t-73.5 30h-22v21h656v-21h-21q-44 0 -74.5 -30.5t-31.5 -76.5l-1 -973q1 -46 32 -77t75 -31h22v-20 h-657zM477 1494q0 62 44.5 106.5t106.5 44.5t106.5 -44.5t44.5 -106.5t-44.5 -106.5t-106.5 -44.5t-106.5 44.5t-44.5 106.5z" />
<glyph unicode="&#xf0;" horiz-adv-x="1517" d="M37 1208v21h699q347 0 540 -162t193 -454q0 -291 -193 -452t-540 -161h-697v20h24q47 0 81 31t34 77v441h-137v93h137v441q-1 45 -35 75t-82 30h-24zM579 95h116q164 0 259 137t95 381q0 247 -94 385t-260 138h-116v-474h216v-93h-216v-474z" />
<glyph unicode="&#xf1;" horiz-adv-x="1595" d="M25 0v21h33q47 0 79.5 29.5t32.5 73.5v915q0 61 -6 115t-12 78l-6 23h17l859 -724v574q0 45 -31.5 74t-78.5 29h-35v21h696v-21h-35q-47 0 -79.5 -28.5t-32.5 -72.5v-909q0 -67 6 -122.5t12 -77.5l6 -23h-18l-861 723v-574q1 -45 33.5 -74t79.5 -29h34v-21h-693z M376.5 1428.5q-2.5 -35.5 6.5 -62.5h26q17 41 71.5 78t116.5 27q54 -8 111.5 -36.5t110.5 -51.5t108 -23q49 0 92 16.5t72 43.5t49.5 61.5t29.5 70t8 68.5t-12 58h-25q-13 -32 -68.5 -65t-117.5 -24q-62 8 -121 36t-110 50.5t-101 22.5q-48 0 -89.5 -17t-68.5 -44.5 t-48.5 -63t-29.5 -72.5t-10.5 -72.5z" />
<glyph unicode="&#xf2;" horiz-adv-x="1595" d="M51 613q0 304 197.5 472t548.5 168q353 0 550 -168t197 -472q0 -302 -197.5 -470t-549.5 -168q-351 0 -548.5 168t-197.5 470zM362 1552q21 74 62 124t113 80q89 -76 183.5 -183t133.5 -197l-15 -14q-108 13 -241 67.5t-236 122.5zM470 613q0 -261 84 -403t243 -142 q160 0 243 141.5t83 403.5q0 263 -83 405t-243 142q-159 0 -243 -142.5t-84 -404.5z" />
<glyph unicode="&#xf3;" horiz-adv-x="1595" d="M51 613q0 304 197.5 472t548.5 168q353 0 550 -168t197 -472q0 -302 -197.5 -470t-549.5 -168q-351 0 -548.5 168t-197.5 470zM470 613q0 -261 84 -403t243 -142q160 0 243 141.5t83 403.5q0 263 -83 405t-243 142q-159 0 -243 -142.5t-84 -404.5zM750 1370 q39 90 133.5 197t182.5 183q72 -30 113 -80t62 -124q-103 -68 -236 -122.5t-241 -67.5z" />
<glyph unicode="&#xf4;" horiz-adv-x="1595" d="M51 613q0 304 197.5 472t548.5 168q353 0 550 -168t197 -472q0 -302 -197.5 -470t-549.5 -168q-351 0 -548.5 168t-197.5 470zM438 1346l15 -16l342 131l364 -131l15 16l-366 359h-24zM470 613q0 -261 84 -403t243 -142q160 0 243 141.5t83 403.5q0 263 -83 405t-243 142 q-159 0 -243 -142.5t-84 -404.5z" />
<glyph unicode="&#xf5;" horiz-adv-x="1595" d="M51 613q0 304 197.5 472t548.5 168q353 0 550 -168t197 -472q0 -302 -197.5 -470t-549.5 -168q-351 0 -548.5 168t-197.5 470zM433.5 1431q-2.5 -35 6.5 -63h26q17 41 71.5 78t116.5 27q54 -8 111.5 -36.5t110.5 -51.5t108 -23q49 0 92 16.5t72 43.5t49.5 61.5t29.5 70 t8 68.5t-12 58h-25q-13 -32 -68.5 -65t-117.5 -24q-61 8 -120.5 35.5t-110.5 50t-101 22.5q-48 0 -89.5 -17t-68.5 -44.5t-48.5 -63t-29.5 -72t-10.5 -71.5zM470 613q0 -261 84 -403t243 -142q160 0 243 141.5t83 403.5q0 263 -83 405t-243 142q-159 0 -243 -142.5 t-84 -404.5z" />
<glyph unicode="&#xf6;" horiz-adv-x="1595" d="M51 613q0 304 197.5 472t548.5 168q353 0 550 -168t197 -472q0 -302 -197.5 -470t-549.5 -168q-351 0 -548.5 168t-197.5 470zM372 1495q0 62 44.5 106.5t106.5 44.5t106 -44.5t44 -106.5t-44 -106.5t-106 -44.5t-106.5 44.5t-44.5 106.5zM470 613q0 -261 84 -403 t243 -142q160 0 243 141.5t83 403.5q0 263 -83 405t-243 142q-159 0 -243 -142.5t-84 -404.5zM909 1495q0 62 44.5 106.5t106.5 44.5t106.5 -44.5t44.5 -106.5t-44.5 -106.5t-106.5 -44.5t-106.5 44.5t-44.5 106.5z" />
<glyph unicode="&#xf7;" horiz-adv-x="985" d="M82 568v133h823v-133h-823zM386 312q0 44 31.5 75t75.5 31t75 -31t31 -75t-31 -75.5t-75 -31.5t-75.5 31.5t-31.5 75.5zM386 959q0 44 31.5 75t75.5 31t75 -31t31 -75t-31 -75.5t-75 -31.5t-75.5 31.5t-31.5 75.5z" />
<glyph unicode="&#xf8;" horiz-adv-x="1595" d="M51 613q0 304 197.5 472t548.5 168q228 0 396 -77l119 140l89 -71l-107 -126q121 -83 185.5 -211.5t64.5 -294.5q0 -302 -197.5 -470t-549.5 -168q-232 0 -403 77l-101 -120l-91 74l89 104q-240 169 -240 503zM470 613q0 -148 27 -259l551 650q-85 156 -251 156 q-159 0 -243 -142.5t-84 -404.5zM543 229q85 -161 254 -161q160 0 243 141.5t83 403.5q0 153 -29 269z" />
<glyph unicode="&#xf9;" horiz-adv-x="1449" d="M39 1213v16h636v-16h-29q-37 0 -62 -25t-26 -63v-668q0 -182 78 -283t220 -101q138 0 214.5 95t78.5 266v690q-1 39 -27 64t-63 25h-27v16h395v-16h-26q-37 0 -64 -25.5t-27 -63.5v-668q0 -227 -134 -354t-384 -127q-325 0 -480.5 123.5t-155.5 353.5v672 q0 38 -26.5 63.5t-63.5 25.5h-27zM378 1550q21 74 62 124t113 80q89 -76 183.5 -183t133.5 -197l-15 -14q-108 13 -241 67.5t-236 122.5z" />
<glyph unicode="&#xfa;" horiz-adv-x="1449" d="M39 1213v16h636v-16h-29q-37 0 -62 -25t-26 -63v-668q0 -182 78 -283t220 -101q138 0 214.5 95t78.5 266v690q-1 39 -27 64t-63 25h-27v16h395v-16h-26q-37 0 -64 -25.5t-27 -63.5v-668q0 -227 -134 -354t-384 -127q-325 0 -480.5 123.5t-155.5 353.5v672 q0 38 -26.5 63.5t-63.5 25.5h-27zM765 1368q39 90 133.5 197t183.5 183q72 -30 113 -80t62 -124q-103 -68 -236 -122.5t-241 -67.5z" />
<glyph unicode="&#xfb;" horiz-adv-x="1449" d="M39 1213v16h635v-16h-28q-37 0 -62 -25t-26 -63v-668q0 -182 78 -283t220 -101q138 0 214.5 95t78.5 266v690q-1 39 -27 64t-63 25h-27v16h395v-16h-26q-37 0 -64 -25.5t-27 -63.5v-668q0 -227 -134.5 -354t-384.5 -127q-324 0 -479.5 123.5t-155.5 353.5v672 q0 38 -26.5 63.5t-63.5 25.5h-27zM454 1344l14 -16l343 132l364 -132l14 16l-365 359h-24z" />
<glyph unicode="&#xfc;" horiz-adv-x="1449" d="M39 1213v16h635v-16h-28q-37 0 -62 -25t-26 -63v-668q0 -182 78 -283t220 -101q138 0 214.5 95t78.5 266v690q-1 39 -27 64t-63 25h-27v16h395v-16h-26q-37 0 -64 -25.5t-27 -63.5v-668q0 -227 -134.5 -354t-384.5 -127q-324 0 -479.5 123.5t-155.5 353.5v672 q0 38 -26.5 63.5t-63.5 25.5h-27zM387 1493q0 62 44.5 106.5t106.5 44.5t106.5 -44.5t44.5 -106.5t-44.5 -106.5t-106.5 -44.5t-106.5 44.5t-44.5 106.5zM925 1493q0 62 44.5 106.5t106.5 44.5t106.5 -44.5t44.5 -106.5t-44.5 -106.5t-106.5 -44.5t-106.5 44.5t-44.5 106.5z " />
<glyph unicode="&#xfd;" horiz-adv-x="1296" d="M-98 1209v20h717v-20h-21q-39 0 -61 -34.5t-1 -71.5l254 -429l249 429q20 36 -2 70.5t-60 34.5h-22v21h445v-20h-25q-53 0 -99.5 -27.5t-76.5 -69.5l-346 -541v-443q1 -46 33.5 -76.5t79.5 -30.5h23v-21h-671v21h23q46 0 78.5 30.5t33.5 76.5v441l-353 543q-28 41 -75 69 t-99 28h-24zM716 1368q39 90 133.5 197t183.5 183q71 -30 112 -79.5t62 -124.5q-103 -68 -236 -122.5t-241 -67.5z" />
<glyph unicode="&#xfe;" d="M76 0v20h22q47 0 79.5 31t33.5 77v973q-1 46 -34 76.5t-79 30.5h-22v21h663l-1 -21h-22q-46 0 -79 -30.5t-34 -75.5v-117h155q132 0 230.5 -27t155.5 -75t85.5 -106t32.5 -128q5 -81 -19 -153.5t-69 -124t-107.5 -84.5t-131.5 -40.5t-144.5 13t-142.5 70.5v17q6 1 16 3 t37.5 15t51.5 33t49 62t38 97q12 49 10 107q-5 106 -61.5 167.5t-155.5 61.5h-30v-765q1 -46 33.5 -77t79.5 -31h22l1 -20h-663z" />
<glyph unicode="&#xff;" horiz-adv-x="1296" d="M-98 1209v20h717v-20h-21q-39 0 -61 -34.5t-1 -71.5l254 -429l249 429q20 36 -2 70.5t-60 34.5h-22v21h445v-20h-25q-53 0 -99.5 -27.5t-76.5 -69.5l-346 -541v-443q1 -46 33.5 -76.5t79.5 -30.5h23v-21h-671v21h23q46 0 78.5 30.5t33.5 76.5v441l-353 543q-28 41 -75 69 t-99 28h-24zM338 1493q0 62 44.5 106.5t106.5 44.5t106 -44.5t44 -106.5t-44 -106.5t-106 -44.5t-106.5 44.5t-44.5 106.5zM875 1493q0 62 44.5 106.5t106.5 44.5t106.5 -44.5t44.5 -106.5t-44.5 -106.5t-106.5 -44.5t-106.5 44.5t-44.5 106.5z" />
<glyph unicode="&#x152;" horiz-adv-x="2338" d="M72 721q0 349 229.5 545t638.5 196q94 0 231 -18q75 -10 140 -10h630q64 1 139 12.5t105 24.5v-423l-21 1v16q0 121 -67.5 190.5t-188.5 74.5h-296v-572h223q97 1 159.5 64t62.5 160v10h20v-570h-20v10q0 96 -61.5 158.5t-158.5 65.5h-225v-552h252q149 0 263 98t162 272 h21l-79 -474h-920q-55 0 -109 -4q-19 -2 -116 -13.5t-171 -11.5q-386 0 -614.5 199.5t-228.5 550.5zM506 717q-1 -300 118.5 -471.5t319.5 -171.5q108 0 177 44.5t70 94.5v1007q-1 48 -69 94t-176 46q-95 0 -174.5 -41.5t-138.5 -120.5t-92.5 -202.5t-34.5 -278.5z" />
<glyph unicode="&#x153;" horiz-adv-x="2041" d="M51 620q0 301 201 469t561 168q82 0 199 -16q45 -6 109 -8h586q55 1 119.5 11t90.5 21v-381h-20v12q0 112 -60.5 175.5t-171.5 67.5h-242v-485h178q90 1 145.5 58.5t54.5 147.5v6h21v-516h-21v6q0 89 -54.5 146.5t-143.5 59.5h-180v-469h212q127 0 227.5 88t141.5 242h21 l-63 -425h-893l-31 -2q-33 -3 -76.5 -8.5t-82.5 -9t-89 -3.5q-339 0 -539 170.5t-200 474.5zM455 616q-1 -257 98 -402.5t264 -145.5q95 0 153 40t59 84v848q-1 42 -58 83.5t-152 41.5q-77 0 -142.5 -35t-115 -102t-77.5 -172.5t-29 -239.5z" />
<glyph unicode="&#x178;" horiz-adv-x="1492" d="M-92 1413v21h791v-21h-26q-45 0 -69.5 -42t-2.5 -85l282 -506l291 506q23 42 -3 84.5t-69 42.5h-26v21h511v-21h-29q-61 0 -117 -34.5t-90 -85.5l-402 -634v-510q1 -53 39.5 -91t92.5 -38h26v-20h-735l1 20h25q53 0 92 37.5t40 90.5v512l-390 636q-32 49 -87.5 83 t-115.5 34h-29zM464 1698q0 62 44.5 106.5t106.5 44.5t106.5 -44.5t44.5 -106.5t-44.5 -106.5t-106.5 -44.5t-106.5 44.5t-44.5 106.5zM1002 1698q0 62 44.5 106.5t106.5 44.5t106 -44.5t44 -106.5t-44 -106.5t-106 -44.5t-106.5 44.5t-44.5 106.5z" />
<glyph unicode="&#x2c6;" d="M207 1369l15 -16l342 132l365 -132l14 16l-365 360h-25z" />
<glyph unicode="&#x2dc;" d="M189.5 1387q-2.5 -35 6.5 -63h25q17 40 72 77t117 27q54 -8 111.5 -36.5t110.5 -51t108 -22.5q49 0 92 16.5t72 43.5t49.5 61t29.5 69.5t8 68.5t-12 58h-25q-13 -32 -68.5 -65t-117.5 -24q-62 8 -121 36t-110 50.5t-101 22.5q-48 0 -89.5 -17t-68.5 -44.5t-48.5 -63 t-29.5 -72t-10.5 -71.5z" />
<glyph unicode="&#x2000;" horiz-adv-x="994" />
<glyph unicode="&#x2001;" horiz-adv-x="1988" />
<glyph unicode="&#x2002;" horiz-adv-x="994" />
<glyph unicode="&#x2003;" horiz-adv-x="1988" />
<glyph unicode="&#x2004;" horiz-adv-x="662" />
<glyph unicode="&#x2005;" horiz-adv-x="497" />
<glyph unicode="&#x2006;" horiz-adv-x="331" />
<glyph unicode="&#x2007;" horiz-adv-x="331" />
<glyph unicode="&#x2008;" horiz-adv-x="248" />
<glyph unicode="&#x2009;" horiz-adv-x="397" />
<glyph unicode="&#x200a;" horiz-adv-x="110" />
<glyph unicode="&#x2010;" horiz-adv-x="778" d="M61 598l21 82h614l21 -82l-21 -84h-614z" />
<glyph unicode="&#x2011;" horiz-adv-x="778" d="M61 598l21 82h614l21 -82l-21 -84h-614z" />
<glyph unicode="&#x2012;" horiz-adv-x="778" d="M61 598l21 82h614l21 -82l-21 -84h-614z" />
<glyph unicode="&#x2013;" horiz-adv-x="1024" d="M0 535v122h1024v-122h-1024z" />
<glyph unicode="&#x2014;" horiz-adv-x="1638" d="M0 535v122h1638v-122h-1638z" />
<glyph unicode="&#x2018;" horiz-adv-x="569" d="M72.5 1328.5q-3.5 70.5 15 133t56.5 117.5t88.5 91.5t114 52.5t129.5 3l9 -29q-32 -14 -57 -41t-38.5 -63.5t-0.5 -84.5t55 -96q60 -70 53 -166t-73 -144q-75 -56 -175.5 -28t-142.5 120q-30 64 -33.5 134.5z" />
<glyph unicode="&#x2019;" horiz-adv-x="548" d="M72.5 1566q6.5 92 69.5 137q52 33 109.5 34.5t112.5 -32t81 -90.5q28 -61 31.5 -128t-14 -126t-54 -111.5t-84.5 -87.5t-109 -50t-123 -3l-8 28q31 14 54.5 39.5t36.5 60t0.5 80.5t-52.5 91q-57 66 -50.5 158z" />
<glyph unicode="&#x201a;" horiz-adv-x="569" d="M72.5 191q7.5 96 73.5 144q75 56 175.5 28t142.5 -120q29 -64 33 -134.5t-15 -132.5t-57 -117t-88.5 -92t-114 -52.5t-129.5 -3.5l-8 29q32 15 57 42t38 63.5t0 84t-55 95.5q-60 70 -52.5 166z" />
<glyph unicode="&#x201c;" horiz-adv-x="1081" d="M72.5 1328.5q-3.5 70.5 15 133t56.5 117.5t88.5 91.5t114 52.5t129.5 3l9 -29q-32 -14 -57 -41t-38.5 -63.5t-0.5 -84.5t55 -96q60 -70 53 -166t-73 -144q-75 -56 -175.5 -28t-142.5 120q-30 64 -33.5 134.5zM565.5 1328.5q-3.5 70.5 15 133t57 117.5t89 91.5t114 52.5 t129.5 3l8 -29q-32 -14 -57 -41t-38 -63.5t0 -84.5t55 -96q60 -70 53 -166t-73 -144q-75 -56 -176 -28t-143 120q-30 64 -33.5 134.5z" />
<glyph unicode="&#x201d;" horiz-adv-x="1019" d="M72.5 1566q6.5 92 69.5 137q52 33 109.5 34.5t112.5 -32t81 -90.5q28 -61 31.5 -128t-14 -126t-54 -111.5t-84.5 -87.5t-109 -50t-123 -3l-8 28q31 14 54.5 39.5t36.5 60t0.5 80.5t-52.5 91q-57 66 -50.5 158zM543.5 1566q6.5 92 69.5 137q52 33 109.5 34.5t112.5 -32 t81 -90.5q28 -61 31.5 -128t-14 -126t-54 -111.5t-84.5 -87.5t-109 -50t-123 -3l-8 28q31 14 54.5 39.5t36.5 60t0.5 80.5t-52.5 91q-57 66 -50.5 158z" />
<glyph unicode="&#x201e;" horiz-adv-x="1060" d="M72.5 176.5q7.5 95.5 73.5 143.5q75 56 175.5 28t142.5 -120q29 -64 33 -134.5t-15 -132.5t-57 -116.5t-88.5 -91.5t-114 -52.5t-129.5 -3.5l-8 29q32 15 57 42t38 63.5t0 84t-55 95.5q-60 70 -52.5 165.5zM564 176.5q7 95.5 73 143.5q75 56 176 28t143 -120 q29 -64 33 -134.5t-15 -132.5t-57 -116.5t-88.5 -91.5t-114 -52.5t-129.5 -3.5l-8 29q32 15 57 42t38 63.5t0 84t-55 95.5q-60 70 -53 165.5z" />
<glyph unicode="&#x2022;" horiz-adv-x="796" d="M110 640q-14 41 0 82q24 72 38 105t43 62t62 43t105 38q42 15 82 1q48 -16 75 -26t53.5 -26t39.5 -29t28.5 -39.5t25.5 -53t26 -75.5q14 -41 -2 -87q-16 -47 -26 -73t-25 -52t-28 -38.5t-39.5 -28t-53 -25.5t-74.5 -26q-41 -14 -82 0q-72 24 -105 38t-62 43t-43 62 t-38 105z" />
<glyph unicode="&#x2026;" horiz-adv-x="1515" d="M72 156q0 76 54 130t130 54t130 -54t54 -130q0 -77 -54 -131t-130 -54t-130 54t-54 131zM573 156q0 76 54 130t131 54q76 0 130 -54t54 -130q0 -77 -54 -131t-130 -54t-130.5 54.5t-54.5 130.5zM1075 156q0 76 54 130t131 54q76 0 130 -54t54 -130q0 -77 -54 -131 t-130 -54t-130.5 54.5t-54.5 130.5z" />
<glyph unicode="&#x202f;" horiz-adv-x="397" />
<glyph unicode="&#x2039;" horiz-adv-x="681" d="M82 598l460 -418l19 14l-162 404l160 395l-17 10z" />
<glyph unicode="&#x203a;" horiz-adv-x="681" d="M123 194l18 -14l461 418l-461 405l-16 -10l159 -395z" />
<glyph unicode="&#x205f;" horiz-adv-x="497" />
<glyph unicode="&#x20ac;" horiz-adv-x="1419" d="M-82 540l39 102h189q-3 36 -3 75q0 35 3 69h-228l37 102h205q55 258 259 416t503 158q138 0 277 -30.5t186 -90.5l-108 -317h-21q3 93 -22.5 161.5t-71.5 105t-97 53t-109 16.5q-159 0 -250 -121.5t-115 -350.5h640l-36 -102h-612v-67q0 -27 2 -77h562l-34 -102h-521 q50 -464 393 -464q150 0 240 89t142 273h18v-338q-60 -62 -197 -94.5t-272 -32.5q-291 0 -494 156t-260 411h-244z" />
<glyph unicode="&#x2122;" horiz-adv-x="1048" d="M20 1317v129q30 -11 70 -11h271q39 0 69 11v-129h-6v4q1 39 -20.5 60.5t-60.5 22.5h-50v-337q0 -16 10.5 -26.5t25.5 -10.5h7v-6h-221v6h7q15 0 25 10.5t11 26.5v337h-50q-39 -1 -60.5 -22.5t-21.5 -60.5v-4h-6zM420 1024v6h9q35 0 43 31l54 382h5l204 -257l183 257h6 l55 -380q8 -33 42 -33h9v-6h-185v5v-5h-36v6h9q9 0 16 7t7 16l-23 157l-95 -132q-3 -4 -7.5 -11t-11.5 -25.5t-6 -32.5h-5l-154 192l-19 -149q1 -9 7.5 -15.5t14.5 -6.5h10v-6h-132z" />
<glyph unicode="&#x25fc;" d="M0 0v1229h1229v-1229h-1229z" />
<glyph unicode="&#xfb01;" horiz-adv-x="1853" d="M43 0v21h22q44 0 75 30.5t31 76.5v973q0 46 -31 76.5t-75 30.5h-22v21h798q51 0 114.5 10.5t88.5 20.5v-391h-20v11q0 119 -63.5 186t-181.5 68h-206v-481h157q91 1 147.5 60.5t56.5 150.5v4h20v-527h-20v7q0 91 -56.5 150t-147.5 60h-157v-430q1 -46 32 -76.5t76 -30.5 h22v-21h-660zM1153 0v21h22q43 0 74 30t31 76v976q-1 45 -31.5 75.5t-73.5 30.5h-22v20h656v-20h-21q-44 0 -75 -31t-32 -77v-973q1 -46 32 -76.5t75 -30.5h22v-21h-657z" />
<glyph unicode="&#xfb02;" horiz-adv-x="2250" d="M43 0v21h22q44 0 75 30.5t31 76.5v973q0 46 -31 76.5t-75 30.5h-22v21h798q51 0 114.5 10.5t88.5 20.5v-391h-20v11q0 119 -63.5 186t-181.5 68h-206v-481h157q91 1 147.5 60.5t56.5 150.5v4h20v-527h-20v7q0 91 -56.5 150t-147.5 60h-157v-430q1 -46 32 -76.5t76 -30.5 h22v-21h-660zM1153 0v21h22q44 0 75 30.5t31 76.5v974q-1 45 -31.5 76t-73.5 31h-23v20h661v-20h-23q-44 0 -75.5 -31t-32.5 -77v-1006h198q122 0 222 89.5t137 245.5h20l-59 -430h-4h-1044z" />
</font>
</defs>
</svg>
