<?xml version="1.0" standalone="no"?>
<!DOCTYPE svg PUBLIC "-//W3C//DTD SVG 1.1//EN" "http://www.w3.org/Graphics/SVG/1.1/DTD/svg11.dtd" >
<svg xmlns="http://www.w3.org/2000/svg">
<metadata></metadata>
<defs>
<font id="cinzelregular" horiz-adv-x="1357" >
<font-face units-per-em="2048" ascent="1638" descent="-410" />
<missing-glyph horiz-adv-x="512" />
<glyph horiz-adv-x="2048" />
<glyph horiz-adv-x="2048" />
<glyph unicode="&#xd;" horiz-adv-x="2048" />
<glyph unicode=" "  horiz-adv-x="512" />
<glyph unicode="&#x09;" horiz-adv-x="512" />
<glyph unicode="&#xa0;" horiz-adv-x="512" />
<glyph unicode="!" horiz-adv-x="471" d="M143 84q0 38 27.5 65t65.5 27t65 -27t27 -65t-27 -65t-65 -27t-65.5 27t-27.5 65zM157 1437h154l-25 -612l-43 -477h-20l-41 477z" />
<glyph unicode="&#x22;" horiz-adv-x="645" d="M102 1035q28 134 34 211t-2 188l144 28q1 -45 -6 -104t-23 -126.5t-49.5 -125t-78.5 -82.5zM369 1035q28 134 34 211t-2 188l143 28q1 -45 -6 -104t-23 -126.5t-49.5 -125t-78.5 -82.5z" />
<glyph unicode="#" horiz-adv-x="1097" d="M41 444v62h231l79 450h-220v62h231l73 416h66l-74 -416h344l74 416h65l-73 -416h220v-62h-231l-79 -450h220v-62h-231l-79 -444h-65l78 444h-344l-78 -444h-66l79 444h-220zM337 506h344l80 450h-345z" />
<glyph unicode="$" horiz-adv-x="960" d="M114.5 215q6.5 87 29.5 154h18q-12 -139 49.5 -226.5t177.5 -105.5l50 658l-180 167q-111 103 -111 255q0 144 100.5 244.5t249.5 100.5l12 152l62 -2l-11 -153q71 -6 124 -18h80v-24v-227h-20q0 86 -50.5 140t-138.5 67l-44 -575l236 -218q102 -94 102 -248 q0 -181 -106.5 -282t-297.5 -103l-14 -180l-61 6l14 180q-183 21 -265 106q-12 45 -5.5 132zM262 1167q0 -113 83 -191l108 -100l40 524q-96 -4 -163.5 -73.5t-67.5 -159.5zM451 34h6q117 4 196 80t79 191q0 118 -81 193l-153 143z" />
<glyph unicode="%" horiz-adv-x="1400" d="M100 1101q29 164 122.5 261t221.5 101q37 0 72 -11q42 -11 121.5 -56.5t135.5 -49.5q53 -4 104 12.5t116 54t69 39.5l46 -18l-763 -1457l-53 23l730 1385q-7 -4 -34 -18t-39 -20t-38 -17t-44.5 -15.5t-44.5 -7.5t-51 -1q-58 5 -135 45q50 -96 23 -250 q-30 -166 -124.5 -264.5t-218.5 -98.5q-125 0 -185.5 98.5t-30.5 264.5zM209 1101q-26 -149 4.5 -235t109.5 -86t140 86t87 235t-4.5 234.5t-109.5 85.5q-80 0 -140.5 -85.5t-86.5 -234.5zM743 333q30 166 124.5 264t219.5 98t185 -98t30 -264t-124.5 -264t-218.5 -98 q-125 0 -185.5 98t-30.5 264zM852 333q-26 -149 4.5 -235t109.5 -86q80 0 141 86t87 235t-4.5 234.5t-110.5 85.5t-140.5 -85.5t-86.5 -234.5z" />
<glyph unicode="&#x26;" horiz-adv-x="1323" d="M61 459q0 253 248 379q-77 124 -77 273q0 153 113 252.5t299 99.5q104 -2 198.5 -41.5t148.5 -104.5l-36 -232h-20q0 146 -79.5 231.5t-211.5 85.5q-117 0 -194 -83t-77 -208q0 -63 20 -121.5t64.5 -119t99.5 -117t141 -133.5q10 -9 67.5 -60.5t89 -80t93.5 -81.5 t122 -103q41 93 42 193t-41 186q-45 93 -132 93h-33v21h410v-21h-31q-44 0 -64 -25.5t-12 -67.5q49 -256 -60 -446q56 -48 87 -73t82 -60.5t97.5 -53t92.5 -21.5v-20q-2 0 -34 -0.5t-45.5 0t-49 3t-58 7t-59 13.5t-65.5 21.5t-64 32t-66 44.5q-145 -142 -378 -142 q-300 0 -464 125.5t-164 354.5zM211 459q0 -189 126.5 -303t351.5 -114q188 0 308 137q-222 184 -393 340q-193 177 -261 269q-132 -121 -132 -329z" />
<glyph unicode="'" horiz-adv-x="348" d="M72 1035q28 134 34 211t-2 188l143 28q1 -45 -6 -104t-23 -126.5t-49.5 -125t-78.5 -82.5z" />
<glyph unicode="(" horiz-adv-x="692" d="M184 683q-3 288 125.5 520t310.5 296l12 -16q-83 -40 -153 -153.5t-111.5 -284.5t-39.5 -358q4 -293 93 -542t207 -331l-12 -19q-175 92 -302 344.5t-130 543.5z" />
<glyph unicode=")" horiz-adv-x="692" d="M61 1483l13 16q118 -42 217.5 -159t159.5 -291.5t58 -365.5q-3 -291 -130 -543.5t-302 -344.5l-12 19q118 83 207.5 331.5t93.5 541.5q2 187 -40 358t-112 284.5t-153 153.5z" />
<glyph unicode="*" horiz-adv-x="790" d="M74 1348l49 56l189 -89l76 -59l-32 91l-27 207l67 29l68 -29l-26 -207l-32 -91l76 59l189 90l48 -56l-7 -73l-205 -39l-96 3l79 -55l144 -151l-38 -63l-71 -17l-101 183l-27 93l-28 -93l-99 -184l-72 17l-38 63l143 153l80 54l-96 -3l-206 38z" />
<glyph unicode="+" horiz-adv-x="985" d="M82 588v92h365v366h92v-366h366v-92h-366v-365h-92v365h-365z" />
<glyph unicode="," horiz-adv-x="378" d="M92 -166q43 14 66 39t25.5 51.5t-4 50.5t-20.5 41q-3 3 -13.5 15.5t-15 18t-11.5 17t-9 20.5t-1.5 21t5.5 24q12 28 42.5 38.5t63.5 -4t49 -52.5q46 -111 -12 -202t-160 -94z" />
<glyph unicode="-" horiz-adv-x="778" d="M70 597l12 46h614l13 -46l-13 -46h-614z" />
<glyph unicode="." horiz-adv-x="366" d="M92 84q0 38 27 65t65 27t65 -27t27 -65t-27 -65t-65 -27t-65 27t-27 65z" />
<glyph unicode="/" horiz-adv-x="831" d="M14 10l739 1452l63 -36l-739 -1455z" />
<glyph unicode="0" horiz-adv-x="1220" d="M129 717q0 347 128.5 546t352.5 199t353 -199t129 -546t-129 -546.5t-353 -199.5t-352.5 199.5t-128.5 546.5zM272 717q0 -318 90.5 -501t247.5 -183q158 0 248.5 183t90.5 501t-90.5 501t-248.5 183q-157 0 -247.5 -183t-90.5 -501z" />
<glyph unicode="1" horiz-adv-x="704" d="M123 1311h77q94 0 94 -101v-1079q0 -46 -33 -78.5t-80 -32.5h-42l-1 -20h444l-1 20h-42q-46 0 -79.5 32.5t-33.5 77.5v1332h-21q-55 -65 -121 -92t-161 -39v-20z" />
<glyph unicode="2" horiz-adv-x="1132" d="M123 0v20q103 95 211 212.5t221 263t185 293.5t72 259q0 167 -78.5 261t-215.5 92q-146 -3 -229.5 -81.5t-80.5 -222.5h-20l-36 231q58 58 162.5 96t203.5 38q205 0 326.5 -109t121.5 -296q0 -63 -20 -133t-50 -131.5t-79 -133t-92.5 -126t-105.5 -122.5t-103.5 -109.5 t-101 -101.5t-84.5 -85h471q89 0 136.5 36.5t103.5 137.5h20l-97 -289h-841z" />
<glyph unicode="3" horiz-adv-x="1030" d="M123 -66l4 21q162 -4 300.5 57.5t222.5 177t84 258.5q-1 168 -115.5 253t-305.5 86l4 21q70 0 138 23.5t122.5 66.5t86.5 111t28 148q-5 101 -68 170t-184 70q-126 -1 -196 -76.5t-63 -198.5h-20l-36 191q119 135 319 145q181 9 292.5 -79.5t111.5 -225.5 q0 -125 -88 -227t-193 -113q131 -21 225.5 -119t95.5 -251q0 -95 -40 -183t-111 -155t-167 -115t-209 -61.5t-238 5.5z" />
<glyph unicode="4" horiz-adv-x="1193" d="M82 509v21l750 932h19v-840h89q52 0 71 8.5t41 32.5h21l-43 -154h-179v-379q1 -46 34 -78t79 -32h23v-20h-404v20h22q45 0 78.5 31t34.5 76v382h-636zM235 622h483v599z" />
<glyph unicode="5" horiz-adv-x="1019" d="M102 -63l4 20q38 -1 86.5 9t104.5 32.5t112 54t108 77.5t93.5 100.5t69 125.5t32.5 148q7 102 -35 178t-120.5 113.5t-187 41t-234.5 -40.5l-18 8l160 556l405 31q110 0 162 102h21l-69 -215l-480 -31l-95 -323q85 22 167.5 25t155 -11.5t133.5 -49.5t104.5 -85.5 t66 -123t18.5 -159.5q-3 -72 -21.5 -137.5t-49 -117t-71 -96.5t-87 -77.5t-97 -61t-101.5 -45t-100.5 -30t-93.5 -17.5t-81 -6t-62 5z" />
<glyph unicode="6" horiz-adv-x="1146" d="M133 556q2 130 28.5 256t82 244.5t134 211.5t193 156.5t250.5 79.5l8 -15q-142 -46 -248.5 -138t-169.5 -217.5t-93.5 -269.5t-30.5 -308q0 -239 81.5 -382t235.5 -143q94 0 158.5 56t92 140t25.5 186q-2 157 -74 248t-202 90q-66 0 -126 -27t-99 -78l-12 18 q52 63 120.5 103.5t139.5 54t141.5 -3t126.5 -60.5t94 -125.5t45 -191.5q6 -89 -21.5 -173t-82 -150t-139.5 -107t-187 -42q-138 -2 -245 66.5t-167.5 203.5t-58.5 317z" />
<glyph unicode="7" horiz-adv-x="1028" d="M72 1198h20q23 63 58.5 93t95.5 30h578l-180 -473q-77 -201 -335 -848h143q35 148 125.5 415.5t149.5 425.5l220 589h-818z" />
<glyph unicode="8" horiz-adv-x="1130" d="M123 371q6 127 79 219.5t217 159.5q-222 159 -222 369q0 148 99.5 244t268.5 99q162 3 265.5 -90t102.5 -255q1 -124 -64.5 -216.5t-186.5 -137.5q38 -19 65.5 -34t64 -38.5t62 -45.5t53 -53.5t44 -65t27 -77t10.5 -91.5q0 -173 -121.5 -280t-321.5 -107 q-203 0 -326 110.5t-116 289.5zM276 350q-2 -146 76.5 -231.5t214.5 -85.5q140 0 213.5 87.5t73.5 210.5q0 38 -8.5 72t-19.5 59t-33.5 50t-39 40.5t-48 35t-49 28.5l-52.5 27t-49 25q-64 34 -76 42q-200 -136 -203 -360zM350 1146q0 -199 211 -321l46 -24q174 129 172 332 q1 123 -56.5 195.5t-155.5 72.5q-101 0 -159 -73.5t-58 -181.5z" />
<glyph unicode="9" horiz-adv-x="1146" d="M115 985q-6 213 115.5 341.5t314.5 131.5q215 3 342 -153t127 -437q0 -125 -25.5 -251t-81 -246t-134 -214.5t-194 -157.5t-252.5 -75l-8 15q140 40 246.5 131t169.5 216.5t94.5 268t31.5 300.5q-1 255 -81 398.5t-235 143.5q-94 0 -158.5 -54t-92.5 -138.5t-26 -190.5 q3 -154 75 -247.5t202 -90.5q66 2 125.5 28.5t98.5 77.5l11 -19q-50 -64 -119.5 -104t-141.5 -51.5t-143.5 6t-128 61.5t-93 124.5t-39.5 185.5z" />
<glyph unicode=":" horiz-adv-x="348" d="M92 84q0 38 27 65t65 27t65 -27t27 -65t-27 -65t-65 -27t-65 27t-27 65zM92 867q0 38 27 65.5t65 27.5t65 -27.5t27 -65.5t-27 -65t-65 -27t-65 27t-27 65z" />
<glyph unicode=";" horiz-adv-x="1228" d="M92 -166q43 14 66 39t25.5 51.5t-4 50.5t-20.5 41q-3 3 -13.5 15.5t-15 18t-11.5 17t-9 20.5t-1.5 21t5.5 24q12 28 42.5 38.5t63.5 -4t49 -52.5q46 -111 -12 -202t-160 -94zM92 926q0 38 27 65t65 27t65 -27t27 -65t-27 -65t-65 -27t-65 27t-27 65z" />
<glyph unicode="&#x3c;" horiz-adv-x="985" d="M82 588v92l823 392v-99l-702 -338l702 -340v-98z" />
<glyph unicode="=" horiz-adv-x="985" d="M82 387v92h823v-92h-823zM82 745v92h823v-92h-823z" />
<glyph unicode="&#x3e;" horiz-adv-x="985" d="M82 197v98l701 340l-701 338v99l823 -392v-92z" />
<glyph unicode="?" horiz-adv-x="845" d="M41 1280q47 87 125.5 134.5t176.5 47.5q187 0 294 -92.5t107 -254.5q0 -77 -32 -146t-80.5 -120.5t-98.5 -98t-93.5 -99.5t-57.5 -104q-17 -45 -15.5 -94.5t35.5 -94.5l-13 -10q-91 83 -91 196q0 53 30 108t73 104t86 101.5t73 119.5t30 138q0 134 -66 210t-181 76 q-122 0 -193 -84t-68 -231h-21zM277 84q0 38 27 65t65 27t65.5 -27t27.5 -65t-27.5 -65t-65.5 -27t-65 27t-27 65z" />
<glyph unicode="@" horiz-adv-x="2000" d="M122 476q-9 147 64 333q133 315 423.5 480.5t653.5 118.5q203 -27 350.5 -136t214.5 -275.5t45 -363.5q-14 -127 -55.5 -246.5t-111.5 -226t-162.5 -191.5t-215 -140t-262.5 -74t-312 9.5t-356 106.5l-8 20q177 -69 345.5 -86t309.5 14.5t262.5 103.5t210 178t146 241.5 t76.5 290.5q35 291 -96 486t-381 228q-308 40 -560.5 -107t-383.5 -441q-65 -146 -79 -282.5t26.5 -220.5t125.5 -85q32 0 65 12.5t65.5 39t60.5 53t61 69t54.5 71t54 75t46.5 65.5l261 354q95 118 112 158h13l85 -827q6 -48 29.5 -72t54.5 -24h11l-3 -16h-324l3 16h14 q27 0 55 21t28 54l-12 220h-336q-61 -85 -104.5 -138.5t-93.5 -101t-98.5 -69.5t-101.5 -22q-112 -1 -186.5 89.5t-83.5 237.5zM823 526h301l-22 397z" />
<glyph unicode="A" horiz-adv-x="1458" d="M-20 0v20h18q51 0 100.5 32.5t78.5 96.5l465 1102q76 166 76 211h18l548 -1313q29 -64 78 -96.5t101 -32.5h18v-20h-462v20h18q45 0 72 36q15 20 15 47q0 21 -9 46l-131 349h-551l-138 -350q-9 -24 -9 -45q0 -27 16 -47q27 -36 72 -36h18v-20h-412zM457 559h504l-247 657 z" />
<glyph unicode="B" horiz-adv-x="1200" d="M124 0v20h26q53 0 91 37.5t40 90.5v1138q0 53 -38.5 90t-92.5 37h-26v21h406q211 0 328 -93t118 -250q-1 -123 -66.5 -203.5t-160.5 -107.5q162 -24 256.5 -132.5t94.5 -262.5q0 -176 -126 -280.5t-351 -104.5h-499zM415 75h200h4q154 1 240 85q87 86 87 240 q0 88 -30 154.5t-75 104t-109.5 60.5t-122.5 30.5t-125 7.5v20q44 0 84 5.5t88.5 24.5t83 50t58.5 87.5t24 131.5q-1 140 -78 216t-221 76h-108v-1293z" />
<glyph unicode="C" horiz-adv-x="1556" d="M123 719q0 334 203 538.5t540 204.5q275 0 485 -138l41 -289h-17q-46 175 -183 270.5t-326 95.5q-269 0 -429.5 -186.5t-160.5 -493.5t159 -494.5t419 -193.5q114 0 208.5 30.5t174 94.5t132 176t69.5 264h17l-25 -322q-87 -141 -230 -223t-346 -82q-159 1 -294.5 54.5 t-232 150t-150.5 236.5t-54 307z" />
<glyph unicode="D" horiz-adv-x="1652" d="M123 0v20h26q54 0 92 38t39 91v1147q0 49 -39 83t-91 34h-26v21l692 -1q217 0 384 -89t259.5 -252.5t92.5 -375.5t-92.5 -375t-259.5 -252t-384 -89h-693zM414 62h402q263 0 422.5 180t159.5 474q0 295 -160 475.5t-422 180.5h-402v-1310z" />
<glyph unicode="E" horiz-adv-x="1181" d="M123 0v20h26q54 0 92 38t39 91v1147q-5 50 -42 83.5t-88 33.5h-26v21h598q64 1 139 12.5t105 24.5v-60v-34v-165l-20 1v36q0 49 -33.5 84t-81.5 38h-418v-633h347q41 1 70 30.5t29 70.5v30h20v-324h-20v30q0 41 -28.5 70.5t-68.5 30.5h-349v-613h294q79 0 139 19 t101.5 57.5t69.5 83t54 108.5h20l-119 -331h-849z" />
<glyph unicode="F" horiz-adv-x="1107" d="M123 0v20h26q54 0 92 38t39 91v1147q0 49 -39 83t-91 34h-26v21h598q64 1 139 12.5t105 24.5v-60v-36v-135h-20v30q0 41 -29 70.5t-70 30.5h-434v-633h347q41 1 70 30.5t29 70.5v30h20v-324h-20v30q0 41 -28.5 70.5t-68.5 30.5h-348v-527q1 -53 39 -91t92 -38h26v-20 h-448z" />
<glyph unicode="G" horiz-adv-x="1634" d="M123 717q0 334 204 539.5t531 205.5q282 0 497 -138l41 -289h-17q-46 175 -181.5 270.5t-338.5 95.5q-261 0 -422 -188t-161 -496q0 -306 161 -494.5t422 -190.5q131 0 251.5 47.5t210.5 130.5v363q0 45 -27.5 69t-77.5 24h-33v21h402v-21h-31q-50 0 -77 -24t-26 -68 v-339q-38 -50 -90 -94t-124 -84t-170 -63t-208 -23q-328 2 -532 207.5t-204 538.5z" />
<glyph unicode="H" horiz-adv-x="1665" d="M123 0v20h26q54 0 92 38t39 91v1136q-2 53 -40 90.5t-91 37.5h-26v21h448v-21h-26q-53 0 -91.5 -37t-39.5 -90v-547h838v548q-2 53 -40 89.5t-91 36.5h-26l-1 21h448v-21h-26q-54 0 -92 -37.5t-39 -90.5v-1136q1 -53 39 -91t92 -38h26v-20h-448l1 20h25q53 0 92 37.5 t40 90.5v530h-838v-529q1 -53 39 -91t92 -38h26v-20h-448z" />
<glyph unicode="I" horiz-adv-x="692" d="M123 0v20h26q54 0 92 38t39 91v1136q-2 53 -40 90.5t-91 37.5h-26v21h448v-21h-26q-53 0 -91.5 -37t-39.5 -90v-1137q1 -53 39 -91t92 -38h26v-20h-448z" />
<glyph unicode="J" horiz-adv-x="663" d="M41 -391q101 35 170 150t69 247v1278q-1 53 -39 91t-92 38h-26v21h448v-21h-26q-54 0 -91.5 -37.5t-39.5 -90.5v-1285q0 -172 -108 -291t-265 -119v19z" />
<glyph unicode="K" horiz-adv-x="1345" d="M123 0v20h26q54 0 92 38t39 91v1136q-2 53 -40 90.5t-91 37.5h-26v21h448v-21h-26q-53 0 -91.5 -37t-39.5 -90v-1137q1 -53 39 -91t92 -38h26v-20h-448zM479 713l483 606q16 21 16 41q0 13 -6 25q-16 31 -59 31h-20v18h433v-19h-9q-65 0 -123 -25.5t-98 -70.5l-482 -557 l560 -658q43 -43 87.5 -62.5t105.5 -20.5v-21h-86q-210 0 -309 116z" />
<glyph unicode="L" horiz-adv-x="1150" d="M123 0v20h26q54 0 92 38t39 91v1135q-1 53 -39 91t-92 38h-26v21h448v-21h-26q-54 0 -92 -38t-39 -91v-1221h293q79 0 139 19t101.5 57.5t69.5 83t54 108.5h20l-119 -331h-849z" />
<glyph unicode="M" horiz-adv-x="1906" d="M32 0v20h32q56 0 98.5 35t50.5 94l154 1313h19l572 -1235l559 1235h18l159 -1313q8 -59 50.5 -93.5t99.5 -34.5h32v-21h-445v19h32q33 -1 58 27q22 25 22 54v7l-93 1030l-430 -957q-58 -124 -71 -209h-19l-524 1137l-90 -1001v-7q0 -30 22 -54q25 -28 58 -27h32v-19h-396 z" />
<glyph unicode="N" horiz-adv-x="1722" d="M92 0v20h38q52 0 89 36t38 88v1064q0 62 -4.5 126t-9.5 97l-5 33h20l1115 -1191v1016q-1 52 -37.5 88t-88.5 36h-38v21h422v-21h-38q-52 0 -88.5 -35.5t-38.5 -86.5v-1058q0 -59 5 -124.5t9 -101.5l5 -36h-19l-1116 1192v-1020q2 -51 38 -87t88 -36h38v-20h-422z" />
<glyph unicode="O" horiz-adv-x="1716" d="M143 717q0 221 92.5 390.5t260 262t383.5 92.5t383.5 -92.5t260.5 -262t93 -390.5q0 -165 -54 -304.5t-150.5 -236.5t-233.5 -151t-299 -54t-299 54t-233 151t-150 236.5t-54 304.5zM300 717q0 -308 159.5 -496t419.5 -188q261 0 420.5 188t159.5 496t-159.5 496 t-420.5 188q-260 0 -419.5 -188t-159.5 -496z" />
<glyph unicode="P" horiz-adv-x="1181" d="M123 0v20h26q54 0 92 38t39 91v1146q-5 50 -42 84t-88 34h-26v21h533q196 0 309.5 -106t113.5 -290q0 -91 -37 -168.5t-99.5 -126.5t-138.5 -75q-61 -21 -127 -21q-17 -1 -34 1q-85 6 -160 47v19q7 -1 19.5 -3t48.5 -4q13 -1 27 -1q23 0 45 2q35 4 81 17.5t83 37t71.5 68 t53.5 104.5q13 41 13 106v18q-4 144 -76 228.5t-200 84.5h-236v-1223q1 -53 39 -91t92 -38h26v-20h-448z" />
<glyph unicode="Q" horiz-adv-x="1714" d="M123 717q0 221 92.5 390.5t260 262t383.5 92.5q215 0 381.5 -92.5t259 -262t92.5 -390.5q0 -285 -152.5 -480t-406.5 -247q230 -69 679 -262q160 -67 338 -86q53 -5 105 -5q127 0 255 32q180 45 301 159l8 -10q-11 -29 -40.5 -66t-81 -77.5t-116.5 -75.5t-152 -58.5 t-182 -28.5q-19 -2 -38 -2q-80 0 -175 18q-118 23 -238 75q-76 33 -256.5 125.5t-330.5 156.5t-273 86q-318 8 -515.5 213t-197.5 533zM277 717q0 -308 160.5 -496t421.5 -188q260 0 419.5 188t159.5 496t-159.5 496t-419.5 188q-262 0 -422 -188t-160 -496z" />
<glyph unicode="R" horiz-adv-x="1386" d="M123 0v20h26q53 0 91 37.5t40 90.5v1136q-1 53 -39 91t-92 38h-26v21h552q186 0 293.5 -103t107.5 -282q0 -99 -45 -188.5t-126.5 -146t-176.5 -56.5q31 -14 72 -56t74 -88q177 -252 256 -339q70 -77 133 -115t146 -39v-21h-113q-68 0 -126 16t-102 46t-72 56.5t-57 61.5 q-13 15 -138 195t-132 188q-35 44 -57.5 68t-59 47t-71.5 23v19h32q34 0 76 1q255 7 320 212q13 41 13 106v17q-4 139 -72 222.5t-182 89.5q-46 3 -103 3t-100.5 -0.5t-51.5 -0.5v-1221q1 -53 39 -91t92 -38h26v-20h-447z" />
<glyph unicode="S" horiz-adv-x="972" d="M120 215q6 87 30 154h18q-2 -23 -2 -45q0 -125 72 -205q79 -87 204 -87q11 0 21 1q117 6 195.5 80.5t78.5 193.5q0 117 -80 191l-392 364q-111 102 -111 254q0 66 24 127.5t68 110.5t114 78.5t154 29.5q80 0 175 -21h81v-24v-227h-19q0 96 -66 153.5t-165 57.5 q-110 0 -181 -69.5t-71 -166.5q0 -111 83 -188l402 -373q103 -95 103 -250q0 -172 -104 -277.5t-279 -105.5q-90 0 -191.5 27.5t-155.5 84.5q-8 29 -8 76q0 25 2 56z" />
<glyph unicode="T" horiz-adv-x="1265" d="M41 1215v258q30 -13 106.5 -25t140.5 -12h691q64 0 140.5 12t106.5 25v-258l-21 1v36q0 49 -33.5 84.5t-82.5 37.5h-389v-1226q1 -53 40 -90.5t92 -37.5h25l1 -20h-449l1 20h26q53 0 91 36.5t40 89.5v1228h-389q-49 -2 -82.5 -37.5t-33.5 -84.5v-36z" />
<glyph unicode="U" horiz-adv-x="1607" d="M102 1413v21h416v-21h-33q-44 0 -75.5 -28t-32.5 -70v-782q0 -224 119.5 -360.5t315.5 -136.5q205 0 330.5 129.5t125.5 341.5v808q-2 42 -33 70t-75 28h-33v21h379v-21h-34q-44 0 -74.5 -27.5t-33.5 -69.5v-809q0 -241 -152 -388.5t-400 -147.5q-256 0 -412 146.5 t-156 385.5v809q-1 44 -32 72.5t-76 28.5h-34z" />
<glyph unicode="V" horiz-adv-x="1515" d="M-20 1413v21h461v-21h-18q-45 0 -72 -35q-15 -20 -15 -46q0 -21 9 -46l429 -1073l446 1072q9 25 9 46q0 27 -15 47q-27 36 -72 35h-18v21h412v-21h-18q-51 0 -100 -32t-79 -95l-493 -1104q-75 -166 -75 -211h-19l-575 1314q-29 64 -78.5 96t-102.5 32h-16z" />
<glyph unicode="W" horiz-adv-x="2011" d="M-20 1413v21h455v-21h-18q-43 -1 -70 -35q-17 -21 -17 -50q0 -19 7 -41l310 -996l381 1175l19 -1l404 -1133l274 959q5 21 5 38q0 30 -15 51q-24 33 -69 33h-18v21h405v-21h-18q-54 0 -106.5 -32.5t-73.5 -94.5l-339 -1083q-42 -130 -45 -228h-19l-419 1171l-310 -943 q-40 -127 -43 -228h-20l-465 1313q-24 62 -75 93.5t-104 31.5h-16z" />
<glyph unicode="X" horiz-adv-x="1355" d="M-20 0v20h28q61 0 116.5 35t91.5 86l393 585l-360 567q-36 51 -90.5 85.5t-115.5 34.5h-29v21h497v-21h-26q-43 1 -69 -41q-14 -22 -15 -45q0 -19 11 -39l282 -443l279 441q12 21 13 42q0 20 -13 42q-25 42 -69 43h-26v21h462v-21h-29q-61 0 -115.5 -34.5t-90.5 -85.5 l-359 -529l397 -625q36 -51 91 -85t116 -34h27v-20h-499v20h26q44 0 70 42q14 22 13 43q0 20 -11 40l-315 498l-315 -496q-12 -20 -12 -41q0 -22 14 -44q27 -42 70 -42h26v-20h-464z" />
<glyph unicode="Y" horiz-adv-x="1353" d="M-20 1413v21h503v-21h-26q-45 0 -69 -42q-13 -22 -13 -44q0 -20 11 -41l307 -573l326 573l1 2q11 20 11 39q0 22 -15 45q-26 41 -69 41h-26v21h455v-21h-29q-60 0 -115 -34t-91 -85l-404 -654v-491q1 -53 39 -91t92 -38h26v-20h-448v20h26q53 0 91 37.5t40 90.5v494 l-390 652q-32 50 -88 84.5t-118 34.5h-27z" />
<glyph unicode="Z" horiz-adv-x="1333" d="M123 0v19l860 1355h-691q-50 -1 -84.5 -36.5t-34.5 -85.5v-37h-21v164v34v60q31 -13 108.5 -25t141.5 -12h568q62 0 130.5 8t86.5 18v-18l-875 -1383h651q109 0 178.5 69.5t101.5 185.5h20l-68 -316h-5h-1067z" />
<glyph unicode="[" horiz-adv-x="679" d="M246 -184v1663h346v-21l-213 -41v-1540l220 -41v-20h-353z" />
<glyph unicode="\" horiz-adv-x="831" d="M14 1426l64 36l738 -1452l-62 -39z" />
<glyph unicode="]" horiz-adv-x="679" d="M82 -164l220 41v1540l-213 41v21h346v-1663h-353v20z" />
<glyph unicode="^" horiz-adv-x="1071" d="M72 373h129l336 315l333 -315h129l-400 386h-123z" />
<glyph unicode="_" horiz-adv-x="1024" d="M0 -123h1024v-61h-1024v61z" />
<glyph unicode="`" horiz-adv-x="899" d="M147 1702q30 57 84 108q115 -110 260 -268l-15 -14q-160 75 -329 174z" />
<glyph unicode="a" d="M-10 0v20h16q44 0 87.5 30t73.5 89l424 908l18 41q18 40 38 92.5t22 76.5h20l506 -1117q30 -60 72 -90t86 -30h15v-20h-421v20h17q40 0 66 34q15 20 14 46q0 20 -8 43l-112 273h-518l-113 -267q-9 -26 -9 -47q0 -26 14 -46q26 -36 66 -36h16v-20h-390zM432 477h467 l-230 561z" />
<glyph unicode="b" horiz-adv-x="1167" d="M113 0v20h24q51 0 86 32.5t37 78.5v967q-1 49 -36 79.5t-87 30.5h-24v21h417q36 0 70.5 -2.5t78.5 -11t81.5 -21.5t74.5 -37t63.5 -55t42.5 -77.5t16 -102.5q0 -90 -68 -161t-158 -93q149 -18 247 -109.5t98 -214.5q0 -77 -28.5 -138t-73.5 -99t-106.5 -62.5t-122 -34.5 t-125.5 -10h-507zM389 61h229q139 0 225 71.5t86 211.5q0 76 -29 132t-74 88.5t-111 52t-127 26t-135 6.5v21q360 0 360 252q0 245 -285 245h-139v-1106z" />
<glyph unicode="c" horiz-adv-x="1443" d="M102 615q0 298 182 470.5t494 172.5q128 0 256.5 -33t222.5 -91l45 -290h-18q-88 352 -507 352q-244 0 -385.5 -156t-141.5 -426q0 -266 142 -421.5t386 -157.5h8q112 0 207 27q98 28 174.5 85.5t123 151.5t54.5 217h18l-21 -280q-79 -123 -230.5 -194t-333.5 -71 q-312 2 -494 174.5t-182 469.5z" />
<glyph unicode="d" horiz-adv-x="1556" d="M113 0v20h27q48 0 80.5 32.5t34.5 79.5v966q-1 48 -34.5 79t-82.5 31h-25v21h683q304 0 481 -165t177 -450q0 -284 -177 -449t-481 -165h-683zM388 62h409q236 0 372.5 148t136.5 404q0 257 -136.5 405t-372.5 148h-409v-1105z" />
<glyph unicode="e" horiz-adv-x="1118" d="M113 0v20h28q49 0 82.5 31.5t35.5 77.5v972q0 46 -34 76.5t-84 30.5h-28v21h598q60 1 130.5 11t98.5 21v-232h-23v32q0 44 -28 74t-74 31h-425v-521h350q41 1 62 25.5t21 61.5v26h22v-287h-22v26q0 36 -20 60.5t-58 26.5h-355v-521h320q72 1 125 17.5t90.5 50t61.5 70.5 t48 93h23l-113 -294h-832z" />
<glyph unicode="f" horiz-adv-x="1071" d="M113 0v20h29q49 0 83 31.5t36 77.5v972q-2 46 -35.5 76.5t-83.5 30.5h-29v21h279h325q60 1 132 11t100 21v-232h-23v32q0 44 -28.5 74t-74.5 31h-431v-521h355q41 1 62 25.5t21 61.5v26h23v-287h-23v26q0 37 -19.5 61t-58.5 26h-360v-453q2 -46 36 -78.5t84 -32.5h28 l1 -20h-428z" />
<glyph unicode="g" horiz-adv-x="1519" d="M102 614q0 297 183.5 470.5t488.5 173.5q274 0 478 -124l45 -290h-18q-45 180 -169 266t-338 86q-237 0 -379.5 -156.5t-142.5 -425.5q0 -267 143.5 -424t380.5 -157q269 0 450 177l4 272q1 39 -25 60t-71 21h-29v20h376v-20h-28q-45 0 -69.5 -21t-24.5 -60l1 -247 q-38 -49 -92 -93t-126.5 -84t-167.5 -63.5t-198 -23.5q-306 2 -489 174.5t-183 468.5z" />
<glyph unicode="h" horiz-adv-x="1527" d="M113 0v21h24q49 0 83.5 32t35.5 78v966q-1 46 -36 78.5t-84 32.5h-23v21h417v-21h-24q-48 0 -82.5 -31t-36.5 -76v-464h756v460q-1 46 -36 78.5t-84 32.5h-23v21h417v-21h-24q-48 0 -82.5 -31t-36.5 -76v-971q2 -46 36 -78t83 -32h24v-20h-417v21h23q49 0 84 31.5 t36 77.5v446h-756v-446q2 -46 36 -77.5t83 -31.5h24v-21h-417z" />
<glyph unicode="i" horiz-adv-x="688" d="M113 0v20h27q57 0 97.5 32.5t42.5 78.5v966q-1 46 -42 78.5t-98 32.5h-27v21h463v-21h-27q-55 0 -95.5 -31t-43.5 -76v-971q1 -46 42 -78t97 -32h27l1 -20h-464z" />
<glyph unicode="j" horiz-adv-x="632" d="M27 -344q100 31 172 131t72 213v1105q-5 44 -43 73.5t-90 29.5h-26v21h450l-1 -21h-26q-55 0 -93.5 -32.5t-39.5 -78.5v-1097q0 -149 -111.5 -257t-263.5 -108v21z" />
<glyph unicode="k" horiz-adv-x="1277" d="M113 0v20h24q49 0 84 32.5t36 78.5v966q-1 46 -35.5 78.5t-84.5 32.5h-24v21h420v-21h-24q-49 0 -84 -31t-37 -76v-971q1 -46 36.5 -78t84.5 -32h24v-20h-420zM461 611l441 518q22 27 6.5 53.5t-51.5 26.5h-18v20h416v-20h-8q-123 0 -199 -74l-447 -478l508 -553 q38 -44 77 -63t103 -20v-21h-77q-200 0 -301 116z" />
<glyph unicode="l" horiz-adv-x="1097" d="M113 0v20h28q49 0 82.5 31.5t35.5 77.5v968q-1 46 -36.5 78.5t-85.5 32.5h-24v21h424v-21h-24q-50 0 -86 -32t-37 -78v-1035h321q72 1 125 17.5t90 50t61 70.5t48 93h23l-113 -294h-832z" />
<glyph unicode="m" horiz-adv-x="1798" d="M16 0v21h31q53 0 93 31.5t47 84.5l159 1120h20l541 -1040l522 1040h20l164 -1124q8 -52 47.5 -82.5t92.5 -30.5h30v-20h-425v19h30q32 0 55.5 24t19.5 56l-108 843l-386 -762q-59 -124 -73 -209h-20l-493 952l-92 -824q-4 -31 20 -55.5t55 -24.5h30v-19h-380z" />
<glyph unicode="n" horiz-adv-x="1595" d="M72 0v20h34q46 0 79.5 31.5t34.5 75.5v877q0 62 -5 126t-10 96l-5 33l22 -1l1063 -1001v849q-3 43 -35.5 72.5t-78.5 29.5h-34v21h387v-21h-34q-46 0 -78.5 -29.5t-35.5 -72.5v-873q0 -59 5 -124.5t9 -101.5l5 -36h-19l-1066 1011v-855q1 -44 34.5 -75.5t79.5 -31.5h35 v-20h-387z" />
<glyph unicode="o" horiz-adv-x="1585" d="M102 614q0 186 93 334t250.5 228.5t347.5 80.5t348 -80.5t251 -228.5t93 -334t-93 -334t-251 -228.5t-348 -80.5t-347.5 80.5t-250.5 228.5t-93 334zM254 614q0 -127 42 -236t114.5 -184.5t171.5 -118t211 -42.5t211 42.5t172 117.5t115 184.5t42 236.5t-42 236.5 t-115 185t-172 118t-211 42.5q-150 0 -272.5 -72.5t-194.5 -206.5t-72 -303z" />
<glyph unicode="p" horiz-adv-x="1132" d="M112 0v20h29q49 0 82.5 31.5t35.5 77.5v971q-1 47 -34.5 77.5t-83.5 30.5h-29v21h479q215 0 342 -94q126 -93 126 -253q0 -116 -53.5 -202t-137.5 -128q-82 -41 -187 -41q-2 0 -3 1q-107 0 -209 50v19q7 -2 19 -4.5t48 -5.5q21 -2 42 -2q14 0 28 1q34 2 79.5 14 t82.5 34.5t72.5 66t56.5 103.5q14 41 14 111q0 125 -86 196.5t-237 71.5h-198v-1037q2 -46 35.5 -78t83.5 -32h28l1 -20h-426z" />
<glyph unicode="q" horiz-adv-x="1591" d="M102 614q0 186 91 334t245.5 228.5t341.5 80.5t341 -80.5t245 -228.5t91 -334q0 -237 -143 -406t-369 -218q167 -50 607 -223q105 -42 223 -62q96 -16 194 -16q22 0 43 1q120 4 233 44t194 114l7 -8q-12 -30 -47 -68t-91.5 -80.5t-137.5 -73t-174 -45.5q-44 -7 -93 -7 q-56 0 -120 9q-120 17 -243 69q-75 31 -225.5 109t-285 137.5t-241.5 80.5q-191 0 -347 80.5t-247.5 228.5t-91.5 334zM254 614q0 -127 41 -236t111.5 -184.5t167.5 -118t206 -42.5t206 42.5t167.5 118t111.5 184.5t41 236q0 169 -70 303t-190 206.5t-266 72.5t-266 -72.5 t-190 -206.5t-70 -303z" />
<glyph unicode="r" horiz-adv-x="1284" d="M113 0v20h28q48 0 81 31.5t35 77.5v973q-2 46 -34.5 76t-81.5 30h-28v21h513q194 0 305 -88.5t111 -243.5q0 -131 -90.5 -227.5t-227.5 -109.5q31 -14 76 -61t82 -100q94 -128 179 -223q39 -44 60.5 -65t53.5 -46t65.5 -35t74.5 -10v-20h-64q-65 0 -121 12t-92.5 28 t-72 44t-53 47t-42.5 49q-13 15 -103 144t-97 137q-110 138 -208 138v19q26 -1 55 -1t63 1t50 1.5t48 4.5t50 10.5t44.5 19.5t43.5 31t35 46t30 64q14 40 14 101v15q-3 114 -75 180t-197 72q-51 3 -105 3t-90 -0.5t-41 -0.5v-1034q1 -47 34 -79t82 -32h28v-20h-418z" />
<glyph unicode="s" horiz-adv-x="946" d="M114 186q6 80 26 136h23q-2 -19 -2 -37q-1 -109 69 -177q77 -75 207 -75h13q126 4 199.5 65t73.5 161q0 97 -75 162l-409 316q-98 84 -98 226q0 122 97 207q99 87 241 87q128 0 203 -18h69l3 -223h-24q0 87 -59.5 134t-177.5 47q-103 0 -175 -57t-71 -139q0 -95 81 -161 l414 -319q44 -38 68 -97q25 -62 25 -126q-1 -134 -105 -230q-106 -96 -257 -97q-100 0 -200.5 25t-153.5 72q-7 25 -7 67q0 23 2 51z" />
<glyph unicode="t" horiz-adv-x="1183" d="M31 1032v231q29 -11 99.5 -21.5t128.5 -10.5h667q58 0 128.5 10.5t99.5 21.5v-231l-21 1v31q0 44 -28.5 74t-74.5 31h-371v-1040q2 -45 37 -77t84 -32h23l1 -20h-422v20h24q50 0 84.5 32.5t35.5 78.5v1038h-371q-46 -1 -74 -31t-28 -74v-31z" />
<glyph unicode="u" horiz-adv-x="1433" d="M82 1208v21h389v-21h-31q-41 0 -69 -25t-29 -63v-664q0 -200 101.5 -314.5t277.5 -114.5q194 0 305.5 108.5t112.5 297.5v688q-1 37 -30 62t-69 25h-30v21h352v-21h-30q-40 0 -68.5 -24.5t-29.5 -61.5v-689q0 -214 -137 -338t-374 -124t-374.5 123t-137.5 336v690 q-1 38 -29.5 63t-69.5 25h-30z" />
<glyph unicode="v" d="M-10 1208v21h420v-21h-16q-40 0 -65 -34q-15 -20 -15 -47q0 -20 8 -43l367 -893l376 889q9 26 9 47q0 26 -14 46q-26 36 -66 36h-16v20h390v-21h-16q-44 0 -87.5 -29.5t-73.5 -89.5l-424 -907l-19 -40q-18 -41 -38 -94t-22 -77h-19l-505 1117q-30 61 -72.5 90.5 t-86.5 29.5h-15z" />
<glyph unicode="w" horiz-adv-x="1841" d="M-16 1208v21h421v-20h-16q-37 0 -60 -28q-14 -17 -14 -45q0 -17 5 -38l273 -833l346 996l20 -1l365 -935l231 759q10 29 10 51q1 23 -11 41q-22 32 -61 33h-16v20h375v-21h-16q-61 0 -104 -33t-63 -89l-298 -883q-42 -130 -46 -228h-20l-381 976l-267 -748 q-40 -127 -44 -228h-20l-430 1121q-48 112 -162 112h-17z" />
<glyph unicode="x" horiz-adv-x="1282" d="M-23 0v21h27q57 0 108 28t87 72l380 488l-345 497q-32 43 -85.5 72.5t-111.5 29.5h-27v21h482v-21h-24q-42 0 -68 -36q-13 -19 -13 -37q0 -17 12 -35l260 -373l249 372q11 17 11 34q1 19 -13 39q-26 36 -67 36h-25v21h455v-21h-27q-59 0 -111 -29t-86 -74l-330 -459 l367 -525q32 -43 85 -72t111 -29l27 1v-21h-486v21h24q42 0 67 36q13 19 13 37q0 17 -11 35l-282 406l-299 -405q-14 -18 -14 -36q-1 -18 13 -36q26 -36 70 -37h25v-21h-448z" />
<glyph unicode="y" horiz-adv-x="1310" d="M-10 1208v21h475v-21h-24q-41 0 -62 -30q-13 -19 -13 -40q0 -13 5 -27l298 -531l318 528q7 16 7 31q0 20 -13 38q-22 31 -64 31h-24v21h429v-21h-26q-55 0 -105.5 -29.5t-82.5 -74.5l-393 -596v-377q1 -46 35.5 -78.5t83.5 -32.5h23l1 -20h-419v20h24q49 0 83.5 32.5 t35.5 78.5v380l-380 594q-69 103 -187 103h-25z" />
<glyph unicode="z" horiz-adv-x="1245" d="M102 0l1 19l763 1150h-610q-45 -1 -72.5 -31t-27.5 -74v-32h-22v142v37v52q26 -11 97 -21t131 -11h471q66 0 139 8t92 18v-17l-778 -1179h562q72 1 125.5 17.5t90.5 50t61 71t48 93.5h22l-111 -293h-982z" />
<glyph unicode="{" horiz-adv-x="690" d="M174 644v20q91 0 108 32q9 42 2.5 87.5t-18 133.5t-11.5 142q2 129 36.5 225.5t114.5 156.5t200 60l3 -17q-56 -14 -96 -42t-63.5 -63t-37.5 -88t-18.5 -105.5t-5.5 -126.5q0 -34 1.5 -90t2 -90t-3.5 -78t-14 -70.5t-31.5 -49.5t-54.5 -33q34 -8 56 -30.5t32 -50.5 t13.5 -72.5t2.5 -80t-2.5 -90t-1.5 -87.5q1 -74 5.5 -126.5t18.5 -105.5t37.5 -88t63.5 -63t96 -42l-3 -17q-90 0 -158.5 34t-109.5 95t-61.5 139.5t-21.5 173.5q0 53 10.5 141t15.5 132t-4 87q-16 39 -103 47z" />
<glyph unicode="|" horiz-adv-x="501" d="M205 -369v1803h92v-1803h-92z" />
<glyph unicode="}" horiz-adv-x="690" d="M82 -188q56 14 96 42t63.5 63t37.5 88t18.5 105.5t5.5 126.5q0 33 -1.5 87.5t-2.5 90t2.5 80t13.5 72.5t32 50.5t56 30.5q-33 10 -54.5 33t-31.5 49.5t-14 70.5t-3.5 78t2 90t1.5 90q-1 74 -5.5 126.5t-18.5 105.5t-37.5 88t-63.5 63t-96 42l3 17q120 0 200 -60 t114.5 -156.5t36.5 -225.5q0 -54 -11.5 -142t-18 -133.5t2.5 -87.5q16 -31 108 -31v-21q-86 -8 -102 -47q-9 -43 -4 -87l15 -132t10 -141q-1 -95 -21.5 -173.5t-61.5 -139.5t-109.5 -95t-158.5 -34z" />
<glyph unicode="~" horiz-adv-x="1009" d="M81.5 573q11.5 53 42.5 88t72.5 52.5t90.5 18.5t112 -30t113 -69t105.5 -70t90.5 -33q72 -2 114.5 51t13.5 141h92q16 -74 4.5 -128t-46 -88.5t-80 -51t-98.5 -16.5q-48 0 -108.5 31t-109.5 68t-106 69t-97 34q-63 3 -97 -45t-16 -147h-92q-12 72 -0.5 125z" />
<glyph unicode="&#xa1;" horiz-adv-x="471" d="M143 1353q0 38 27.5 65t65.5 27t65 -27t27 -65t-27 -65t-65 -27t-65.5 27t-27.5 65zM160 0l25 612l43 471h20l41 -471l25 -612h-154z" />
<glyph unicode="&#xa2;" horiz-adv-x="1232" d="M102 709q0 260 157.5 407.5t429.5 147.5l13 171l63 -2l-14 -173q185 -19 317 -103l35 -250h-14q-64 264 -343 292l-81 -984q206 0 332.5 100t140.5 308h14l-16 -242q-67 -109 -190 -168.5t-286 -59.5l-14 -172l-60 7l14 169q-228 23 -363 170t-135 382zM256 708 q0 -208 91 -335t258 -153l79 983q-205 0 -316.5 -130t-111.5 -365z" />
<glyph unicode="&#xa3;" horiz-adv-x="1181" d="M102 673l26 74h197q-7 155 10.5 277t64 218t131.5 152.5t206 67.5q94 9 170.5 -25t121.5 -92l-57 -187h-20q17 132 -45.5 192.5t-169.5 50.5q-74 -7 -125.5 -40t-81 -88.5t-45 -134t-17.5 -176.5t1 -215h376l-25 -74h-350q-1 -75 -8.5 -140.5t-17.5 -112t-29 -91t-33 -71 t-40.5 -58.5t-41.5 -47t-44 -43q36 12 84 14t86.5 -2t103.5 -12.5t108 -11.5q66 -6 128.5 1.5t126 31t118 73t90.5 122.5h21l-93 -277q-96 -44 -202.5 -60t-192.5 -5q-48 7 -100 19t-86 22.5t-77 19.5t-73 10t-75 -6q-15 -3 -41 -17.5t-43 -31.5h-21v20q86 69 147.5 242 t61.5 411h-225z" />
<glyph unicode="&#xa4;" horiz-adv-x="1107" d="M102 315l120 120q-108 124 -107 288t110 287l-123 122l44 44l123 -123q123 105 285 104t284 -107l126 126l43 -44l-126 -125q106 -122 107 -284t-104 -285l123 -123l-43 -44l-123 123q-123 -109 -287 -109.5t-288 106.5l-120 -120zM178 721q0 -155 109 -265 q72 -72 168.5 -97.5t193 0t168.5 97.5q109 110 109 265t-109 265q-72 72 -168.5 97.5t-193 0t-168.5 -97.5q-109 -110 -109 -265z" />
<glyph unicode="&#xa5;" horiz-adv-x="1353" d="M-20 1413v21h503v-21h-26q-45 0 -69 -42t-2 -85l307 -573l326 573l1 2q23 42 -3.5 83.5t-69.5 41.5h-26v21h455v-21h-29q-60 0 -115 -34t-91 -85l-275 -444h260v-62h-298l-91 -148v-36h389v-61h-389v-396q1 -53 39.5 -90t91.5 -37h26v-20h-448v20h26q54 0 92 38t39 91 v394h-389v61h389v38l-87 146h-302v62h265l-266 444q-32 50 -88 84.5t-118 34.5h-27z" />
<glyph unicode="&#xa6;" horiz-adv-x="501" d="M205 348h92v-717h-92v717zM205 717v717h92v-717h-92z" />
<glyph unicode="&#xa7;" horiz-adv-x="1046" d="M135 868q-1 109 33.5 211t98.5 178.5t143 128t159 64.5q152 25 238 -44q56 -44 52 -99q-3 -34 -30 -54q-21 -16 -53 0t-65.5 46t-78.5 54.5t-92 27t-106 -37.5q-71 -52 -75 -117.5t73 -179t256 -294.5q110 -111 167 -234.5t61 -233.5t-27.5 -214t-91.5 -182t-138 -130.5 t-161 -66.5q-152 -25 -240 42q-57 44 -54 99q3 35 32 57q21 15 52.5 -0.5t64.5 -45t78 -54t92 -27t106 36.5q71 49 72 126.5t-81 195.5t-253 282q-115 111 -173 233.5t-59 231.5zM215 968q-5 -70 15 -137t77 -152t152 -171q190 -173 261 -304.5t41 -234.5q204 323 -169 680 q-130 125 -200 219.5t-92.5 168.5t-14.5 157q-31 -57 -48 -106.5t-22 -119.5z" />
<glyph unicode="&#xa8;" horiz-adv-x="1228" d="M302 1514q0 33 23.5 56.5t56.5 23.5t56.5 -23.5t23.5 -56.5t-23.5 -56.5t-56.5 -23.5t-56.5 23.5t-23.5 56.5zM687 1514q0 33 23.5 56.5t56.5 23.5t56.5 -23.5t23.5 -56.5t-23.5 -56.5t-56.5 -23.5t-56.5 23.5t-23.5 56.5z" />
<glyph unicode="&#xa9;" horiz-adv-x="1736" d="M123 717q0 152 59 290t158.5 237.5t237.5 158.5t290 59t290 -59t238 -158.5t159 -237.5t59 -290q0 -203 -100 -374.5t-271.5 -271.5t-374.5 -100q-152 0 -290 59t-237.5 159t-158.5 238t-59 290zM198 717q0 -136 53 -260.5t143 -214.5t214 -143t260 -53q182 0 336.5 90 t244.5 244.5t90 336.5q0 136 -53 260t-143 214t-214.5 143t-260.5 53t-260 -53t-214 -143t-143 -214t-53 -260zM412 717q0 196 134 326.5t335 130.5q87 0 173 -23.5t150 -64.5l30 -206h-12q-27 112 -118 176t-223 64q-143 0 -238.5 -115t-95.5 -288q0 -170 95.5 -285 t238.5 -118q79 0 144.5 19t117 58t82.5 104t37 152h12l-14 -200q-53 -87 -154.5 -137t-224.5 -50q-201 1 -335 131.5t-134 325.5z" />
<glyph unicode="&#xaa;" horiz-adv-x="753" d="M0 774v11h9q55 0 90 72l229 484q41 90 43 121h11l274 -602q37 -75 90 -75h8v-11h-252v11h9q23 0 37 21t2 53l-52 136h-253l-58 -137q-12 -32 1.5 -52.5t36.5 -20.5h9v-11h-234zM266 1045h212l-100 261z" />
<glyph unicode="&#xab;" horiz-adv-x="927" d="M82 598l358 -414l18 10l-243 404l241 395l-16 10zM430 598l358 -414l19 10l-244 404l241 395l-16 10z" />
<glyph unicode="&#xac;" horiz-adv-x="1230" d="M82 721v93h1068v-416h-92v323h-976z" />
<glyph unicode="&#xad;" horiz-adv-x="778" d="M70 597l12 46h614l13 -46l-13 -46h-614z" />
<glyph unicode="&#xae;" horiz-adv-x="501" d="M20 1204q0 96 68 163.5t164 67.5t163.5 -67.5t67.5 -163.5t-67.5 -163.5t-163.5 -67.5t-164 67.5t-68 163.5zM61 1204q0 -79 56 -134.5t135 -55.5t134.5 55.5t55.5 134.5t-55.5 134.5t-134.5 55.5t-135 -55.5t-56 -134.5zM138 1089v4h6q9 0 15 6.5t6 15.5v194 q0 9 -6 15.5t-15 6.5h-6v4h76h45q37 0 61 -18t24 -48q0 -26 -16.5 -45.5t-42.5 -22.5q5 -1 11 -6t13 -13.5t12 -16t12 -18.5t10 -15l3 -5q3 -5 5 -7.5l6 -7.5t7.5 -7.5t9.5 -6t12 -5.5v-4h-26q-20 0 -35 4.5t-27 17t-17.5 19.5t-16 27t-13.5 24q-16 28 -23 28v4h22l3 1 q3 0 5.5 1t7 3.5t8 5.5t7 9.5t6.5 14.5q3 9 3 23q-2 44 -51 44l-25 1v-201q0 -9 6.5 -15.5t15.5 -6.5h5v-4h-103z" />
<glyph unicode="&#xaf;" horiz-adv-x="1228" d="M349 1440v71h512v-71h-512z" />
<glyph unicode="&#xb0;" horiz-adv-x="526" d="M61 1159q0 83 59.5 142.5t142.5 59.5t142.5 -59.5t59.5 -142.5t-59.5 -142.5t-142.5 -59.5t-142.5 59.5t-59.5 142.5zM142 1159q0 -51 35 -86t86 -35t86 35t35 86t-35 86t-86 35t-86 -35t-35 -86z" />
<glyph unicode="&#xb1;" horiz-adv-x="985" d="M82 123v92h823v-92h-823zM82 732v92h365v365h92v-365h366v-92h-366v-366h-92v366h-365z" />
<glyph unicode="&#xb2;" horiz-adv-x="768" d="M61 631v13q27 25 87 77t100.5 88.5t93.5 91.5t85.5 100.5t56 100.5t23.5 105q0 96 -53.5 151t-139.5 53q-85 -2 -141.5 -53t-54.5 -139h-13l-24 154q39 39 103.5 64t129.5 25q129 0 217 -69.5t88 -180.5q0 -34 -8.5 -68.5t-18 -62.5t-32.5 -61.5t-37 -54t-48 -53 t-47.5 -46t-53.5 -45t-49 -38t-50.5 -36.5t-42.5 -31h282q59 0 90.5 24t68.5 92h14l-65 -201h-561z" />
<glyph unicode="&#xb3;" horiz-adv-x="634" d="M61 586l3 14q169 -4 276.5 73.5t107.5 222.5q0 174 -266 174l3 14q101 0 169.5 52t66.5 140q-1 61 -41 97.5t-104 36.5q-81 0 -120.5 -36t-36.5 -119h-14l-24 127q62 76 195 77q108 2 180.5 -51.5t72.5 -135.5q0 -62 -54.5 -116t-122.5 -66q82 -11 143 -63.5t61 -126.5 q0 -119 -66 -201t-179 -111t-250 -2z" />
<glyph unicode="&#xb4;" horiz-adv-x="899" d="M411 1542q174 186 260 268q55 -55 84 -108q-132 -77 -330 -174z" />
<glyph unicode="&#xb6;" horiz-adv-x="1064" d="M102 1059q2 169 117 271.5t285 103.5h331h15.5h18.5t18 1t21 3.5t21.5 6.5t24 10.5t24 15.5t26.5 21.5t27 28.5l14 -12q-60 -133 -216 -136h-26v-1072q0 -121 -19.5 -188.5t-78.5 -139.5l-19 17q27 45 39 92t14 81t2 109v24v1077h-170v-1373q0 -58 -2 -96t-12 -89.5 t-28 -87.5t-52 -73t-83 -62l-14 19q84 87 106.5 161t17.5 228v682q-174 0 -289 103t-113 274z" />
<glyph unicode="&#xb7;" horiz-adv-x="348" d="M82 717q0 38 27 65t65 27t65 -27t27 -65t-27 -65t-65 -27t-65 27t-27 65z" />
<glyph unicode="&#xb8;" horiz-adv-x="1228" d="M503 -367l2 21q46 0 86.5 11.5t70 42.5t27.5 77q-1 41 -29 63t-65.5 20.5t-76.5 -15.5l-11 20l99 129h56l-85 -100q30 10 64 11.5t68.5 -8t58 -41t24.5 -81.5q1 -47 -24.5 -84t-67 -55.5t-94 -23.5t-103.5 13z" />
<glyph unicode="&#xb9;" horiz-adv-x="432" d="M82 1361h51q63 0 63 -67v-576q0 -31 -22 -52.5t-53 -21.5h-29v-13h300v13h-29q-31 0 -53 21.5t-22 52.5v744h-14q-36 -43 -81 -60.5t-111 -26.5v-14z" />
<glyph unicode="&#xba;" horiz-adv-x="843" d="M61 1110q0 147 106 249.5t256 102.5t255.5 -102.5t105.5 -249.5t-105.5 -250t-255.5 -103t-256 103t-106 250zM174 1110q0 -133 70.5 -221.5t178.5 -88.5t178.5 88.5t70.5 221.5t-70.5 221t-178.5 88t-178.5 -88t-70.5 -221z" />
<glyph unicode="&#xbb;" horiz-adv-x="927" d="M123 194l18 -10l358 414l-358 405l-16 -10l241 -395zM471 194l18 -10l358 414l-358 405l-16 -10l241 -395z" />
<glyph unicode="&#xbc;" horiz-adv-x="1460" d="M123 1361v14q66 9 111 26.5t81 60.5h14v-745q0 -31 22 -52t53 -21h29v-13h-300v13h29q31 0 53 21.5t22 52.5v576q0 67 -63 67h-51zM205 4l50 -33l979 1457l-50 34zM800 266v14l451 549h13v-494h60q35 0 47.5 5.5t26.5 21.5h14l-29 -96h-119v-181q0 -30 22.5 -51.5 t53.5 -21.5h15v-14h-272v14h15q30 0 52 20t23 50v184h-373zM911 335h263v327z" />
<glyph unicode="&#xbd;" horiz-adv-x="1648" d="M123 1361h51q63 0 63 -67v-576q0 -31 -22 -52.5t-53 -21.5h-29v-13h300v13h-29q-31 0 -53 21.5t-22 52.5v744h-14q-36 -43 -81 -60.5t-111 -26.5v-14zM203 4l50 -33l979 1457l-50 34zM942 0v14q27 25 87 77t100.5 88t93.5 91t85.5 100.5t55.5 100.5t23 105q0 96 -53 151 t-139 53q-85 -2 -141.5 -53t-54.5 -139h-14l-24 154q39 39 104 64.5t130 25.5q129 0 216.5 -69.5t87.5 -180.5q0 -77 -32 -148.5t-101 -139.5t-107.5 -99.5t-119.5 -89.5q-18 -14 -27 -20h282q59 0 91 24t69 92h13l-65 -201h-560z" />
<glyph unicode="&#xbe;" horiz-adv-x="1460" d="M61 586l3 14q169 -4 276.5 73.5t107.5 222.5q0 174 -266 174l3 14q101 0 169.5 52t66.5 140q-1 61 -41 97.5t-104 36.5q-81 0 -120.5 -36t-36.5 -119h-14l-24 127q62 76 195 77q108 2 180.5 -51.5t72.5 -135.5q0 -62 -54.5 -116t-122.5 -66q82 -11 143 -63.5t61 -126.5 q0 -119 -66 -201t-179 -111t-250 -2zM293 4l50 -33l979 1457l-49 34zM810 266v14l451 549h13v-494h59q35 0 48.5 5.5t26.5 21.5h14l-29 -96h-119v-181q0 -30 22.5 -51.5t53.5 -21.5h15v-14h-272v14h15q30 0 52 20t23 50v184h-373zM921 335h262v327z" />
<glyph unicode="&#xbf;" horiz-adv-x="886" d="M102 319q0 65 23.5 125t59 103.5t79.5 88t83.5 80.5t72.5 81t45 89q17 45 15.5 94.5t-35.5 94.5l12 10q91 -83 91 -195q0 -53 -30 -108t-73 -104t-86 -101.5t-73 -119.5t-30 -138q0 -134 66 -210t181 -76q123 0 194 84t68 231h20l20 -194q-47 -87 -125.5 -135t-176.5 -48 q-187 0 -294 92.5t-107 255.5zM385 1350q0 38 27 65t65 27t65 -27t27 -65t-27 -65.5t-65 -27.5t-65 27.5t-27 65.5z" />
<glyph unicode="&#xc0;" horiz-adv-x="1458" d="M-20 0v20h18q51 0 100.5 32.5t78.5 96.5l465 1102q76 166 76 211h18l548 -1313q29 -64 78 -96.5t101 -32.5h18v-20h-462v20h18q45 0 72 36t6 93l-131 349h-551l-138 -350q-20 -57 7 -92.5t72 -35.5h18v-20h-412zM401 1739q30 57 84 108q115 -110 260 -268l-15 -14 q-160 75 -329 174zM457 559h504l-247 657z" />
<glyph unicode="&#xc1;" horiz-adv-x="1458" d="M-20 0v21h18q51 0 100.5 32t78.5 96l465 1102q76 166 76 211h18l548 -1313q29 -64 78 -96t101 -32h18v-21h-462v20h18q45 0 72 36t6 93l-131 349h-551l-138 -350q-20 -57 7 -92.5t72 -35.5h18v-20h-412zM457 559h504l-247 657zM716 1579q174 186 260 268q55 -55 84 -108 q-132 -77 -330 -174z" />
<glyph unicode="&#xc2;" horiz-adv-x="1458" d="M-20 0v20h18q51 0 100.5 32.5t78.5 96.5l465 1102q76 166 76 211h18l548 -1313q29 -64 78 -96.5t101 -32.5h18v-20h-462v20h18q45 0 72 36t6 93l-131 349h-551l-138 -350q-20 -57 7 -92.5t72 -35.5h18v-20h-412zM457 559h504l-247 657zM502 1579l13 -16l214 135l233 -136 l12 17l-234 243h-20z" />
<glyph unicode="&#xc3;" horiz-adv-x="1458" d="M-20 0v20h18q51 0 100.5 32.5t78.5 96.5l465 1102q76 166 76 211h18l548 -1313q29 -64 78 -96.5t101 -32.5h18v-20h-462v20h18q45 0 72 36t6 93l-131 349h-551l-138 -350q-20 -57 7 -92.5t72 -35.5h18v-20h-412zM457 559h504l-247 657zM496 1571h21q33 83 111 83 q30 0 114.5 -44.5t131.5 -44.5q53 0 89 42.5t45 117.5l-20 1q-28 -69 -114 -69q-32 0 -114.5 43.5t-131.5 43.5q-50 0 -85.5 -46t-46.5 -127z" />
<glyph unicode="&#xc4;" horiz-adv-x="1458" d="M-20 0v20h18q51 0 100.5 32.5t78.5 96.5l465 1102q76 166 76 211h18l548 -1313q29 -64 78 -96.5t101 -32.5h18v-20h-462v20h18q45 0 72 36t6 93l-131 349h-551l-138 -350q-20 -57 7 -92.5t72 -35.5h18v-20h-412zM457 559h504l-247 657zM457 1645q0 33 24 56.5t57 23.5 t56.5 -23.5t23.5 -56.5t-23.5 -56.5t-56.5 -23.5t-57 23.5t-24 56.5zM843 1645q0 33 23.5 56.5t56.5 23.5t56.5 -23.5t23.5 -56.5t-23.5 -56.5t-56.5 -23.5t-56.5 23.5t-23.5 56.5z" />
<glyph unicode="&#xc5;" horiz-adv-x="1458" d="M-20 0v20h18q51 0 100.5 32.5t78.5 96.5l465 1102q56 123 72 186q-70 5 -114.5 43.5t-44.5 95.5q0 60 49.5 99.5t124.5 39.5q76 0 125 -37.5t49 -101.5q0 -57 -44 -95.5t-112 -43.5l537 -1288q29 -64 78 -96.5t101 -32.5h18v-20h-462v20h18q45 0 72 36t6 93l-131 349 h-551l-138 -350q-20 -57 7 -92.5t72 -35.5h18v-20h-412zM457 559h504l-247 657zM638 1576q0 -50 25.5 -79t65.5 -29t65.5 29t25.5 79t-25.5 78.5t-65.5 28.5t-65.5 -28.5t-25.5 -78.5z" />
<glyph unicode="&#xc6;" horiz-adv-x="1847" d="M-20 0v21h14q49 0 103 37t86 88l766 1196q12 26 -2 48.5t-43 22.5h-8v21h499q64 1 139 12.5t105 24.5v-231h-20v30q0 41 -29 70.5t-70 30.5h-433v-654h346q41 1 70 30.5t29 70.5v30l20 1v-324h-20v30q0 41 -28.5 70.5t-68.5 30.5h-348v-593h336q223 3 313 221h21 l-115 -284h-2h-808l1 20h20q41 0 70 29.5t30 70.5v536h-335l-306 -518q-26 -44 -8.5 -82t63.5 -35h19v-21h-406zM654 717h299v507z" />
<glyph unicode="&#xc7;" horiz-adv-x="1556" d="M123 719q0 334 203 538.5t540 204.5q275 0 485 -138l41 -289h-17q-46 175 -183 270.5t-326 95.5q-269 0 -429.5 -186.5t-160.5 -493.5t159 -494.5t419 -193.5q114 0 208.5 30.5t174 94.5t132 176t69.5 264h17l-25 -322q-83 -136 -219 -217t-327 -87l-77 -89 q30 10 64 11.5t68.5 -8t58 -41t24.5 -81.5q1 -47 -24.5 -84t-67 -55t-93.5 -23t-103 13l1 20q46 0 86.5 11.5t70.5 42.5t28 77q-1 41 -29.5 63t-66 20.5t-76.5 -15.5l-10 21l90 117q-314 11 -509.5 214.5t-195.5 532.5z" />
<glyph unicode="&#xc8;" horiz-adv-x="1181" d="M123 0v20h26q54 0 92 38t39 91v1147q-5 50 -42 83.5t-88 33.5h-26v21h598q64 1 139 12.5t105 24.5v-60v-34v-165l-20 1v36q0 49 -33.5 84t-81.5 38h-418v-633h347q41 1 70 30.5t29 70.5v30h20v-324h-20v30q0 41 -28.5 70.5t-68.5 30.5h-349v-613h294q79 0 139 19 t101.5 57.5t69.5 83t54 108.5h20l-119 -331h-849zM281 1739q30 57 84 108q115 -110 260 -268l-14 -14q-165 78 -330 174z" />
<glyph unicode="&#xc9;" horiz-adv-x="1181" d="M123 0v20h26q54 0 92 38t39 91v1147q-5 50 -42 83.5t-88 33.5h-26v21h598q64 1 139 12.5t105 24.5v-60v-34v-165l-20 1v36q0 49 -33.5 84t-81.5 38h-418v-633h347q41 1 70 30.5t29 70.5v30h20v-324h-20v30q0 41 -28.5 70.5t-68.5 30.5h-349v-613h294q79 0 139 19 t101.5 57.5t69.5 83t54 108.5h20l-119 -331h-849zM596 1579q174 186 260 268q55 -55 84 -108q-137 -80 -329 -174z" />
<glyph unicode="&#xca;" horiz-adv-x="1181" d="M123 0v20h26q54 0 92 38t39 91v1147q-5 50 -42 83.5t-88 33.5h-26v21h598q64 1 139 12.5t105 24.5v-60v-34v-165l-20 1v36q0 49 -33.5 84t-81.5 38h-417v-633h346q41 1 70 30.5t29 70.5v30h20v-324h-20v30q0 41 -28.5 70.5t-68.5 30.5h-348v-613h293q79 0 139 19 t101.5 57.5t69.5 83t54 108.5h20l-119 -331h-849zM383 1579l12 -16l215 135l232 -136l13 17l-234 243h-21z" />
<glyph unicode="&#xcb;" horiz-adv-x="1181" d="M123 0v20h26q54 0 92 38t39 91v1147q-5 50 -42 83.5t-88 33.5h-26v21h598q64 1 139 12.5t105 24.5v-60v-34v-165l-20 1v36q0 49 -33.5 84t-81.5 38h-418v-633h347q41 1 70 30.5t29 70.5v30h20v-324h-20v30q0 41 -28.5 70.5t-68.5 30.5h-349v-613h294q79 0 139 19 t101.5 57.5t69.5 83t54 108.5h20l-119 -331h-849zM338 1645q0 33 23.5 56.5t56.5 23.5t56.5 -23.5t23.5 -56.5t-23.5 -56.5t-56.5 -23.5t-56.5 23.5t-23.5 56.5zM724 1645q0 33 23.5 56.5t56.5 23.5t56.5 -23.5t23.5 -56.5t-23.5 -56.5t-56.5 -23.5t-56.5 23.5t-23.5 56.5z " />
<glyph unicode="&#xcc;" horiz-adv-x="692" d="M17 1739q30 57 84 108q115 -110 260 -268l-14 -14q-165 78 -330 174zM123 0v20h26q54 0 92 38t39 91v1136q-2 53 -40 90.5t-91 37.5h-26v21h448v-21h-26q-53 0 -91.5 -37t-39.5 -90v-1137q1 -53 39 -91t92 -38h26v-20h-448z" />
<glyph unicode="&#xcd;" horiz-adv-x="692" d="M123 0v21h26q54 0 92 37.5t39 90.5v1136q-2 53 -40 90.5t-91 37.5h-26v21h448v-21h-26q-53 0 -91.5 -37t-39.5 -90v-1137q1 -53 39 -90.5t92 -37.5h26v-21h-448zM332 1579q174 186 260 268q55 -55 84 -108q-137 -80 -329 -174z" />
<glyph unicode="&#xce;" horiz-adv-x="692" d="M119 1579l12 -16l214 135l233 -136l12 17l-233 243h-21zM123 0v20h26q54 0 92 38t39 91v1136q-2 53 -40 90.5t-91 37.5h-26v21h448v-21h-26q-53 0 -91.5 -37t-39.5 -90v-1137q1 -53 39 -91t92 -38h26v-20h-448z" />
<glyph unicode="&#xcf;" horiz-adv-x="692" d="M74 1645q0 33 23.5 56.5t56.5 23.5t56.5 -23.5t23.5 -56.5t-23.5 -56.5t-56.5 -23.5t-56.5 23.5t-23.5 56.5zM123 0v20h26q54 0 92 38t39 91v1136q-2 53 -40 90.5t-91 37.5h-26v21h448v-21h-26q-53 0 -91.5 -37t-39.5 -90v-1137q1 -53 39 -91t92 -38h26v-20h-448z M460 1645q0 33 23.5 56.5t56.5 23.5t56.5 -23.5t23.5 -56.5t-23.5 -56.5t-56.5 -23.5t-56.5 23.5t-23.5 56.5z" />
<glyph unicode="&#xd0;" horiz-adv-x="1652" d="M123 686v62h167v548q0 49 -39 83t-91 34h-26v21l692 -1q327 0 526.5 -197t199.5 -520q0 -213 -90 -375.5t-255 -251.5t-381 -89h-693v20h26q54 0 92 38t39 91v537h-167zM424 62h402q262 0 422 180t160 474q0 295 -160 475.5t-422 180.5h-402v-625h334v-61h-334v-624z" />
<glyph unicode="&#xd1;" horiz-adv-x="1722" d="M92 0v20h38q52 0 89 36t38 88v1064q0 62 -4.5 126t-9.5 97l-5 33h20l1115 -1191v1016q-1 52 -37.5 88t-88.5 36h-38v21h422v-21h-38q-52 0 -88.5 -35.5t-38.5 -86.5v-1058q0 -59 5 -124.5t9 -101.5l5 -36h-19l-1116 1192v-1020q2 -51 38 -87t88 -36h38v-20h-422z M638 1571h20q33 83 111 83q30 0 115 -44.5t132 -44.5q53 0 89 42.5t45 117.5l-20 1q-28 -69 -114 -69q-32 0 -115 43.5t-132 43.5q-50 0 -85 -46t-46 -127z" />
<glyph unicode="&#xd2;" horiz-adv-x="1716" d="M123 717q0 221 92.5 390.5t260 262t383.5 92.5t383.5 -92.5t260 -262t92.5 -390.5q0 -165 -54 -304.5t-150 -236.5t-233 -151t-299 -54t-299 54t-233 151t-150 236.5t-54 304.5zM280 717q0 -308 159.5 -496t419.5 -188t419.5 188t159.5 496t-159.5 496t-419.5 188 t-419.5 -188t-159.5 -496zM529 1739q31 59 83 108q115 -110 260 -268l-14 -14q-160 75 -329 174z" />
<glyph unicode="&#xd3;" horiz-adv-x="1716" d="M143 717q0 221 92.5 390.5t260 262t383.5 92.5t383.5 -92.5t260.5 -262t93 -390.5q0 -165 -54 -304.5t-150.5 -236.5t-233.5 -151t-299 -54t-299 54t-233 151t-150 236.5t-54 304.5zM300 717q0 -308 159.5 -496t419.5 -188q261 0 420.5 188t159.5 496t-159.5 496 t-420.5 188q-260 0 -419.5 -188t-159.5 -496zM864 1579q174 186 260 268q55 -55 84 -108q-132 -77 -330 -174z" />
<glyph unicode="&#xd4;" horiz-adv-x="1716" d="M143 717q0 221 92.5 390.5t260 262t383.5 92.5t383.5 -92.5t260.5 -262t93 -390.5q0 -165 -54 -304.5t-150.5 -236.5t-233.5 -151t-299 -54t-299 54t-233 151t-150 236.5t-54 304.5zM300 717q0 -308 159.5 -496t419.5 -188q261 0 420.5 188t159.5 496t-159.5 496 t-420.5 188q-260 0 -419.5 -188t-159.5 -496zM651 1579l12 -16l214 135l233 -136l12 17l-234 243h-20z" />
<glyph unicode="&#xd5;" horiz-adv-x="1716" d="M143 717q0 221 92.5 390.5t260 262t383.5 92.5t383.5 -92.5t260.5 -262t93 -390.5q0 -165 -54 -304.5t-150.5 -236.5t-233.5 -151t-299 -54t-299 54t-233 151t-150 236.5t-54 304.5zM300 717q0 -308 159.5 -496t419.5 -188q261 0 420.5 188t159.5 496t-159.5 496 t-420.5 188q-260 0 -419.5 -188t-159.5 -496zM644 1571h21q33 83 111 83q30 0 114.5 -44.5t131.5 -44.5q53 0 89 42.5t45 117.5l-20 1q-28 -69 -114 -69q-32 0 -114.5 43.5t-131.5 43.5q-50 0 -85.5 -46t-46.5 -127z" />
<glyph unicode="&#xd6;" horiz-adv-x="1716" d="M143 717q0 221 92.5 390.5t260 262t383.5 92.5t383.5 -92.5t260.5 -262t93 -390.5q0 -165 -54 -304.5t-150.5 -236.5t-233.5 -151t-299 -54t-299 54t-233 151t-150 236.5t-54 304.5zM300 717q0 -308 159.5 -496t419.5 -188q261 0 420.5 188t159.5 496t-159.5 496 t-420.5 188q-260 0 -419.5 -188t-159.5 -496zM606 1645q0 33 23.5 56.5t56.5 23.5t56.5 -23.5t23.5 -56.5t-23.5 -56.5t-56.5 -23.5t-56.5 23.5t-23.5 56.5zM991 1645q0 33 23.5 56.5t56.5 23.5t56.5 -23.5t23.5 -56.5t-23.5 -56.5t-56.5 -23.5t-56.5 23.5t-23.5 56.5z" />
<glyph unicode="&#xd7;" horiz-adv-x="849" d="M102 376l259 258l-259 259l66 65l258 -258l258 258l65 -65l-258 -259l258 -258l-65 -65l-258 258l-258 -258z" />
<glyph unicode="&#xd8;" horiz-adv-x="1695" d="M123 717q0 335 199.5 540t526.5 205q265 0 452 -140l131 157l52 -46l-129 -156q106 -99 163 -242.5t57 -317.5q0 -335 -199.5 -540.5t-526.5 -205.5q-272 0 -460 146l-137 -164l-52 45l137 164q-103 99 -158.5 241t-55.5 314zM270 717q0 -285 138 -470l830 999 q-155 155 -389 155q-260 0 -419.5 -188t-159.5 -496zM453 194q156 -161 396 -161q260 0 419.5 188t159.5 496q0 291 -143 476z" />
<glyph unicode="&#xd9;" horiz-adv-x="1607" d="M102 1413v21h416v-21h-33q-44 0 -75.5 -28t-32.5 -70v-782q0 -224 119.5 -360.5t315.5 -136.5q205 0 330.5 129.5t125.5 341.5v807q-2 43 -33 71t-75 28h-33v21h379v-21h-34q-44 0 -74.5 -27.5t-33.5 -69.5v-810q0 -241 -152 -388t-400 -147q-256 0 -412 146.5 t-156 385.5v809q-1 44 -32 72.5t-76 28.5h-34zM493 1739q30 57 84 108q115 -110 260 -268l-14 -14q-165 78 -330 174z" />
<glyph unicode="&#xda;" horiz-adv-x="1607" d="M102 1413v21h416v-21h-33q-44 0 -75.5 -28t-32.5 -70v-782q0 -224 119.5 -360.5t315.5 -136.5q205 0 330.5 129.5t125.5 341.5v808q-2 42 -33 70t-75 28h-33v21h379v-21h-34q-44 0 -74.5 -27.5t-33.5 -69.5v-809q0 -241 -152 -388.5t-400 -147.5q-256 0 -412 146.5 t-156 385.5v809q-1 44 -32 72.5t-76 28.5h-34zM808 1579q174 186 260 268q55 -55 84 -108q-132 -77 -330 -174z" />
<glyph unicode="&#xdb;" horiz-adv-x="1607" d="M102 1413v21h416v-21h-33q-44 0 -75.5 -28t-32.5 -70v-782q0 -224 119.5 -360.5t315.5 -136.5q205 0 330.5 129.5t125.5 341.5v808q-2 42 -33 70t-75 28h-33v21h379v-21h-34q-44 0 -74.5 -27.5t-33.5 -69.5v-809q0 -241 -152 -388.5t-400 -147.5q-256 0 -412 146.5 t-156 385.5v809q-1 44 -32 72.5t-76 28.5h-34zM595 1579l12 -16l214 135l233 -136l12 17l-234 243h-20z" />
<glyph unicode="&#xdc;" horiz-adv-x="1607" d="M102 1413v21h416v-21h-33q-44 0 -75.5 -28t-32.5 -70v-782q0 -224 119.5 -360.5t315.5 -136.5q205 0 330.5 129.5t125.5 341.5v808q-2 42 -33 70t-75 28h-33v21h379v-21h-34q-44 0 -74.5 -27.5t-33.5 -69.5v-809q0 -241 -152 -388.5t-400 -147.5q-256 0 -412 146.5 t-156 385.5v809q-1 44 -32 72.5t-76 28.5h-34zM550 1645q0 33 23.5 56.5t56.5 23.5t56.5 -23.5t23.5 -56.5t-23.5 -56.5t-56.5 -23.5t-56.5 23.5t-23.5 56.5zM935 1645q0 33 23.5 56.5t56.5 23.5t56.5 -23.5t23.5 -56.5t-23.5 -56.5t-56.5 -23.5t-56.5 23.5t-23.5 56.5z" />
<glyph unicode="&#xdd;" horiz-adv-x="1353" d="M-20 1413v21h503v-21h-26q-45 0 -69 -42t-2 -85l307 -573l326 573l1 2q23 42 -3.5 83.5t-69.5 41.5h-26v21h455v-21h-29q-60 0 -115 -34t-91 -85l-404 -654v-491q1 -53 39 -91t92 -38h26v-20h-448v20h26q53 0 91 37.5t40 90.5v494l-390 652q-32 50 -88 84.5t-118 34.5 h-27zM682 1579q174 186 260 268q55 -55 84 -108q-132 -77 -330 -174z" />
<glyph unicode="&#xde;" horiz-adv-x="1134" d="M87 0l1 20h26q54 0 92 38t39 91v1136q-2 53 -40 90.5t-91 37.5h-26l-1 21h448v-21h-26q-53 0 -91.5 -37t-39.5 -90v-164h244q199 0 305.5 -105t106.5 -290q0 -91 -36 -168t-97 -126.5t-135.5 -75.5t-158.5 -19.5t-159 46.5v19q7 -1 19.5 -3t49 -4t71.5 1.5t81 17t83 37 t71.5 68t53.5 104.5q16 50 14 123q-4 144 -76.5 229t-200.5 85h-236v-912q1 -53 39 -91t92 -38h26v-20h-448z" />
<glyph unicode="&#xdf;" horiz-adv-x="1892" d="M114 185.5q6 79.5 26 136.5h23q-13 -136 67.5 -214.5t219.5 -74.5q126 4 199.5 65t73.5 161q0 97 -75 162l-409 316q-96 82 -98 221q-2 125 97 212t241 87q128 0 203 -18h69l3 -223h-24q0 87 -59.5 134t-177.5 47q-103 0 -175 -57t-71 -139q0 -95 81 -161l414 -319 q45 -38 68.5 -97t24.5 -123q1 -137 -104.5 -233.5t-257.5 -96.5q-100 0 -200.5 25t-153.5 72q-11 38 -5 117.5zM1060.5 185.5q5.5 79.5 25.5 136.5h23q-13 -136 67.5 -214.5t219.5 -74.5q126 4 199.5 65t73.5 161q0 98 -74 162l-410 316q-96 82 -98 221q-1 124 97.5 211.5 t241.5 87.5q123 0 202 -19h69l3 -222h-24q0 87 -59 134t-177 47q-103 0 -175 -57t-71 -139q0 -96 80 -161l415 -319q45 -38 68 -97t24 -123q1 -137 -104.5 -233.5t-257.5 -96.5q-100 0 -200 25t-153 72q-11 38 -5.5 117.5z" />
<glyph unicode="&#xe0;" d="M-10 0v20h16q44 0 87.5 30t73.5 89l424 907l18 40q18 41 38 94t22 77h20l506 -1117q30 -60 72 -90t86 -30h15v-20h-421v20h17q40 0 65.5 34.5t6.5 88.5l-112 273h-518l-113 -267q-21 -57 4.5 -93t66.5 -36h16v-20h-390zM351 1535q29 56 84 107q115 -110 260 -268l-15 -14 q-151 71 -329 175zM432 477h467l-230 561z" />
<glyph unicode="&#xe1;" d="M-10 0v20h16q44 0 87.5 30t73.5 89l424 908l18 41q18 40 38 93t22 77h20l506 -1118q30 -60 72 -89.5t86 -29.5h15v-21h-421v20h17q40 0 65.5 34.5t6.5 88.5l-112 273h-518l-113 -267q-21 -57 4.5 -93t66.5 -36h16v-20h-390zM432 477h467l-230 561zM666 1374 q174 186 260 268q55 -55 84 -108q-132 -77 -330 -174z" />
<glyph unicode="&#xe2;" d="M-10 0v20h16q44 0 87.5 30t73.5 89l424 908l18 41q18 40 38 92.5t22 76.5h20l506 -1117q30 -60 72 -90t86 -30h15v-20h-421v20h17q40 0 65.5 34.5t6.5 88.5l-112 273h-518l-113 -267q-21 -57 4.5 -93t66.5 -36h16v-20h-390zM432 477h467l-230 561zM452 1374l12 -16 l215 135l233 -135l12 16l-234 243h-20z" />
<glyph unicode="&#xe3;" d="M-10 0v20h16q44 0 87.5 30t73.5 89l424 908l18 41q18 40 38 92.5t22 76.5h20l506 -1117q30 -60 72 -90t86 -30h15v-20h-421v20h17q40 0 65.5 34.5t6.5 88.5l-112 273h-518l-113 -267q-21 -57 4.5 -93t66.5 -36h16v-20h-390zM432 477h467l-230 561zM446 1366h20 q33 83 111 83q30 0 115 -44.5t132 -44.5q53 0 89 43t45 118h-20q-28 -69 -114 -69q-32 0 -115 44t-132 44q-50 0 -85 -46.5t-46 -127.5z" />
<glyph unicode="&#xe4;" d="M-10 0v20h16q44 0 87.5 30t73.5 89l424 908l18 41q18 40 38 92.5t22 76.5h20l506 -1117q30 -60 72 -90t86 -30h15v-20h-421v20h17q40 0 65.5 34.5t6.5 88.5l-112 273h-518l-113 -267q-21 -57 4.5 -93t66.5 -36h16v-20h-390zM407 1440q0 33 23.5 56.5t56.5 23.5 t56.5 -23.5t23.5 -56.5t-23.5 -56.5t-56.5 -23.5t-56.5 23.5t-23.5 56.5zM432 477h467l-230 561zM793 1440q0 33 23.5 56.5t56.5 23.5t56.5 -23.5t23.5 -56.5t-23.5 -56.5t-56.5 -23.5t-56.5 23.5t-23.5 56.5z" />
<glyph unicode="&#xe5;" d="M-10 0v20h16q44 0 87.5 30t73.5 89l424 908l18 41q18 40 38 92.5t22 76.5h20l506 -1117q30 -60 72 -90t86 -30h15v-20h-421v20h17q40 0 65.5 34.5t6.5 88.5l-112 273h-518l-113 -267q-21 -57 4.5 -93t66.5 -36h16v-20h-390zM432 477h467l-230 561zM488 1514 q0 67 55.5 110.5t137.5 43.5q84 0 138 -41.5t54 -112.5q0 -67 -55 -110t-137 -43q-83 0 -138 43t-55 110zM580 1514q0 -55 28.5 -86.5t72.5 -31.5t72 31.5t28 86.5q0 56 -28 87.5t-72 31.5t-72.5 -32t-28.5 -87z" />
<glyph unicode="&#xe6;" horiz-adv-x="1708" d="M-10 0v20h12q43 0 89.5 31t73.5 75h2l715 1025q10 23 -1.5 42t-36.5 19h-7v18h489q54 0 119.5 10.5t91.5 21.5v-212h-21v26q0 36 -25 61t-61 26h-411v-545h340q35 1 60 26t25 61v26l21 1v-284h-21v20q0 35 -24 60t-59 27h-342v-493h332q186 3 265 191h22l-98 -253h-758 v20h17q36 0 61 24t26 59v452h-312l-287 -450q-14 -34 2 -59.5t52 -25.5h16v-20h-367zM614 618h272v428z" />
<glyph unicode="&#xe7;" horiz-adv-x="1443" d="M102 615q0 298 182 470.5t494 172.5q128 0 256.5 -33t222.5 -91l45 -290h-18q-88 352 -507 352q-244 0 -385.5 -156t-141.5 -426q0 -266 142 -421.5t386 -157.5q117 -1 215 27t174.5 85.5t123 151.5t54.5 217h18l-21 -281q-75 -117 -216.5 -186.5t-313.5 -76.5l-83 -97 q30 10 64 11.5t68.5 -8t58 -41t24.5 -81.5q1 -47 -24.5 -84t-67 -55t-93.5 -23t-103 13l1 20q46 0 86.5 11.5t70.5 42.5t28 77q-1 41 -29.5 63t-66 20.5t-76.5 -15.5l-10 20l95 126q-302 8 -477.5 179.5t-175.5 463.5z" />
<glyph unicode="&#xe8;" horiz-adv-x="1118" d="M113 0v20h28q49 0 82.5 31.5t35.5 77.5v972q0 46 -34 76.5t-84 30.5h-28v21h598q60 1 130.5 11t98.5 21v-232h-23v32q0 44 -28 74t-74 31h-425v-521h350q41 1 62 25.5t21 61.5v26h22v-287h-22v26q0 36 -20 60.5t-58 26.5h-355v-521h320q72 1 125 17.5t90.5 50t61.5 70.5 t48 93h23l-113 -294h-832zM279 1535q29 56 84 107q115 -110 260 -268l-15 -14q-151 71 -329 175z" />
<glyph unicode="&#xe9;" horiz-adv-x="1118" d="M113 0v20h28q49 0 82.5 31.5t35.5 77.5v972q0 46 -34 76.5t-84 30.5h-28v21h598q60 1 130.5 11t98.5 21v-232h-23v32q0 44 -28 74t-74 31h-425v-521h350q41 1 62 25.5t21 61.5v26h22v-287h-22v26q0 36 -20 60.5t-58 26.5h-355v-521h320q72 1 125 17.5t90.5 50t61.5 70.5 t48 93h23l-113 -294h-832zM594 1374q174 186 260 268q55 -55 84 -108q-132 -77 -330 -174z" />
<glyph unicode="&#xea;" horiz-adv-x="1118" d="M113 0v20h28q49 0 82.5 31.5t35.5 77.5v972q0 46 -34 76.5t-84 30.5h-28v21h598q60 1 130.5 11t98.5 21v-232h-22v32q0 44 -28.5 74t-74.5 31h-425v-521h350q41 1 62 25.5t21 61.5v26h22v-287h-22v26q0 36 -20 60.5t-58 26.5h-355v-521h320q72 1 125 17.5t90.5 50 t61.5 70.5t48 93h23l-113 -294h-832zM380 1374l12 -16l215 135l233 -135l12 16l-234 243h-20z" />
<glyph unicode="&#xeb;" horiz-adv-x="1118" d="M113 0v20h28q49 0 82.5 31.5t35.5 77.5v972q0 46 -34 76.5t-84 30.5h-28v21h598q60 1 130.5 11t98.5 21v-232h-23v32q0 44 -28 74t-74 31h-425v-521h350q41 1 62 25.5t21 61.5v26h22v-287h-22v26q0 36 -20 60.5t-58 26.5h-355v-521h320q72 1 125 17.5t90.5 50t61.5 70.5 t48 93h23l-113 -294h-832zM335 1440q0 33 23.5 56.5t56.5 23.5t56.5 -23.5t23.5 -56.5t-23.5 -56.5t-56.5 -23.5t-56.5 23.5t-23.5 56.5zM721 1440q0 33 23.5 56.5t56.5 23.5t56.5 -23.5t23.5 -56.5t-23.5 -56.5t-56.5 -23.5t-56.5 23.5t-23.5 56.5z" />
<glyph unicode="&#xec;" horiz-adv-x="626" d="M-14 1535q27 55 83 107q115 -110 260 -268l-14 -14q-159 75 -329 175zM113 0v20h22q46 0 79 32.5t34 78.5v966q-1 46 -33.5 78.5t-79.5 32.5h-22v21h402v-21h-22q-46 0 -78.5 -31t-34.5 -76v-971q2 -46 34.5 -78t78.5 -32h22v-20h-402z" />
<glyph unicode="&#xed;" horiz-adv-x="626" d="M113 0v21h22q46 0 79 32t34 78v966q-1 46 -33.5 78.5t-79.5 32.5h-22v21h402v-21h-22q-46 0 -78.5 -31t-34.5 -76v-971q1 -46 34 -77.5t79 -31.5h22v-21h-402zM300 1374q174 186 260 268q55 -55 84 -108q-132 -77 -330 -174z" />
<glyph unicode="&#xee;" horiz-adv-x="626" d="M87 1374l12 -16l214 135l233 -135l12 16l-234 243h-20zM113 0v21h22q46 0 79 32t34 78v966q-1 46 -33.5 78.5t-79.5 32.5h-22v21h402v-21h-22q-46 0 -78.5 -31t-34.5 -76v-971q2 -46 34.5 -78t78.5 -32h22v-20h-402z" />
<glyph unicode="&#xef;" horiz-adv-x="626" d="M42 1440q0 33 23.5 56.5t56.5 23.5t56.5 -23.5t23.5 -56.5t-23.5 -56.5t-56.5 -23.5t-56.5 23.5t-23.5 56.5zM113 0v21h22q46 0 79 32t34 78v966q-1 46 -33.5 78.5t-79.5 32.5h-22v21h402v-21h-22q-46 0 -78.5 -31t-34.5 -76v-971q2 -46 34.5 -78t78.5 -32h22v-20h-402z M427 1440q0 33 23.5 56.5t56.5 23.5t56.5 -23.5t23.5 -56.5t-23.5 -56.5t-56.5 -23.5t-56.5 23.5t-23.5 56.5z" />
<glyph unicode="&#xf0;" horiz-adv-x="1556" d="M113 0v20h27q48 0 80.5 32.5t34.5 79.5v452h-128v61h128v453q-1 48 -34.5 79t-82.5 31h-25v21h683q304 0 481 -165t177 -450q0 -284 -177 -449t-481 -165h-683zM388 62h409q236 0 372.5 148t136.5 404q0 257 -136.5 405t-372.5 148h-409v-522h322v-62h-322v-521z" />
<glyph unicode="&#xf1;" horiz-adv-x="1595" d="M72 0v20h34q46 0 79.5 31.5t34.5 75.5v877q0 62 -5 126t-10 96l-5 33l22 -1l1063 -1001v849q-3 43 -35.5 72.5t-78.5 29.5h-34v21h387v-21h-35q-45 0 -77.5 -29.5t-35.5 -72.5v-873q0 -59 5 -124.5t9 -101.5l5 -36h-19l-1066 1011v-855q1 -44 34.5 -75.5t79.5 -31.5h35 v-20h-387zM560 1366h21q33 83 111 83q30 0 114.5 -44.5t131.5 -44.5q53 0 89 43t45 118h-20q-28 -69 -114 -69q-32 0 -114.5 44t-131.5 44q-50 0 -85.5 -46.5t-46.5 -127.5z" />
<glyph unicode="&#xf2;" horiz-adv-x="1585" d="M102 614q0 186 93 334t250.5 228.5t347.5 80.5t347.5 -80.5t250.5 -228.5t93 -334t-93 -334t-250.5 -228.5t-347.5 -80.5t-347.5 80.5t-250.5 228.5t-93 334zM254 614q0 -127 42 -236t114.5 -184.5t171.5 -118t211 -42.5t211 42.5t172 117.5t115 184.5t42 236.5 t-42 236.5t-115 185t-172 118t-211 42.5q-150 0 -272.5 -72.5t-194.5 -206.5t-72 -303zM464 1535q29 56 84 107q115 -110 260 -268l-15 -14q-151 71 -329 175z" />
<glyph unicode="&#xf3;" horiz-adv-x="1585" d="M102 614q0 186 93 334.5t250.5 229t347.5 80.5q142 0 269 -47.5t220.5 -131t148 -204.5t54.5 -261q0 -186 -93 -334t-251 -228.5t-348 -80.5t-347.5 80.5t-250.5 228.5t-93 334zM254 614q0 -127 42 -236t114.5 -184.5t171.5 -118t211 -42.5t211 42.5t172 117.5t115 184.5 t42 236.5t-42 236.5t-115 185t-172 118t-211 42.5q-150 0 -272.5 -72.5t-194.5 -206.5t-72 -303zM779 1374q174 186 260 268q55 -55 84 -108q-132 -77 -330 -174z" />
<glyph unicode="&#xf4;" horiz-adv-x="1585" d="M102 614q0 186 93 334t251 228.5t348 80.5t347.5 -80.5t250.5 -228.5t93 -334t-93 -334t-250.5 -228.5t-347.5 -80.5t-348 80.5t-251 228.5t-93 334zM254 614q0 -127 42 -236.5t115 -184.5t172 -117.5t211 -42.5t211 42.5t171.5 118t114.5 184.5t42 236q0 169 -72 303 t-194.5 206.5t-272.5 72.5q-112 0 -211 -42.5t-172 -118t-115 -185t-42 -236.5zM565 1374l13 -16l214 135l233 -135l12 16l-234 243h-20z" />
<glyph unicode="&#xf5;" horiz-adv-x="1585" d="M102 614q0 186 93 334t250.5 228.5t347.5 80.5t348 -80.5t251 -228.5t93 -334t-93 -334t-251 -228.5t-348 -80.5t-347.5 80.5t-250.5 228.5t-93 334zM254 614q0 -127 42 -236t114.5 -184.5t171.5 -118t211 -42.5t211 42.5t172 117.5t115 184.5t42 236.5t-42 236.5 t-115 185t-172 118t-211 42.5q-150 0 -272.5 -72.5t-194.5 -206.5t-72 -303zM559 1366h21q33 83 111 83q30 0 114.5 -44.5t131.5 -44.5q53 0 89 43t45 118h-20q-28 -69 -114 -69q-32 0 -114.5 44t-131.5 44q-50 0 -85.5 -46.5t-46.5 -127.5z" />
<glyph unicode="&#xf6;" horiz-adv-x="1585" d="M102 614q0 186 93 334t250.5 228.5t347.5 80.5t348 -80.5t251 -228.5t93 -334t-93 -334t-251 -228.5t-348 -80.5t-347.5 80.5t-250.5 228.5t-93 334zM254 614q0 -127 42 -236t114.5 -184.5t171.5 -118t211 -42.5t211 42.5t172 117.5t115 184.5t42 236.5t-42 236.5 t-115 185t-172 118t-211 42.5q-150 0 -272.5 -72.5t-194.5 -206.5t-72 -303zM520 1440q0 33 24 56.5t57 23.5t56.5 -23.5t23.5 -56.5t-23.5 -56.5t-56.5 -23.5t-57 23.5t-24 56.5zM906 1440q0 33 23.5 56.5t56.5 23.5t56.5 -23.5t23.5 -56.5t-23.5 -56.5t-56.5 -23.5 t-56.5 23.5t-23.5 56.5z" />
<glyph unicode="&#xf7;" horiz-adv-x="985" d="M82 588v92h823v-92h-823zM420 312q0 30 21.5 51t51.5 21t51 -21t21 -51t-21 -51.5t-51 -21.5t-51.5 21.5t-21.5 51.5zM420 959q0 30 21.5 51t51.5 21t51 -21t21 -51t-21 -51t-51 -21t-51.5 21t-21.5 51z" />
<glyph unicode="&#xf8;" horiz-adv-x="1585" d="M102 614q0 186 93 334t250.5 228.5t347.5 80.5q199 0 361 -88l102 123l52 -46l-94 -113q127 -87 198.5 -221t71.5 -298q0 -186 -93 -334t-250.5 -228.5t-347.5 -80.5q-247 0 -434 135l-128 -153l-51 45l126 151q-97 87 -150.5 206t-53.5 259zM254 614q0 -221 122 -380 l722 868q-135 94 -305 94q-150 0 -272.5 -72.5t-194.5 -206.5t-72 -303zM422 182q151 -149 371 -149q112 0 211 42.5t172 117.5t115 184.5t42 236.5q0 137 -48 251.5t-133 193.5z" />
<glyph unicode="&#xf9;" horiz-adv-x="1433" d="M82 1208v21h389v-21h-31q-41 0 -69 -25t-29 -63v-664q0 -200 101.5 -314.5t277.5 -114.5q194 0 305.5 108.5t112.5 297.5v688q-1 37 -30 62t-69 25h-30v21h352v-21h-30q-40 0 -68.5 -24.5t-29.5 -61.5v-689q0 -214 -137 -338t-374 -124t-374.5 123t-137.5 336v690 q-1 38 -29.5 63t-69.5 25h-30zM389 1535q30 57 83 107q115 -110 260 -268l-14 -14q-151 71 -329 175z" />
<glyph unicode="&#xfa;" horiz-adv-x="1433" d="M82 1208v21h389v-21h-31q-41 0 -69 -25t-29 -63v-664q0 -200 101.5 -314.5t277.5 -114.5q194 0 305.5 108.5t112.5 297.5v688q-1 37 -30 62t-69 25h-30v21h352v-21h-30q-40 0 -68.5 -24.5t-29.5 -61.5v-689q0 -214 -137 -338t-374 -124t-374.5 123t-137.5 336v690 q-1 38 -29.5 63t-69.5 25h-30zM703 1374q165 177 261 268q52 -52 83 -108q-137 -80 -329 -174z" />
<glyph unicode="&#xfb;" horiz-adv-x="1433" d="M82 1208v21h389v-21h-31q-41 0 -69 -25t-29 -63v-664q0 -200 101.5 -314.5t277.5 -114.5q194 0 305.5 108.5t112.5 297.5v688q-1 37 -30 62t-69 25h-30v21h352v-21h-30q-40 0 -68.5 -24.5t-29.5 -61.5v-689q0 -214 -137 -338t-374 -124t-374.5 123t-137.5 336v690 q-1 38 -29.5 63t-69.5 25h-30zM490 1374l12 -16l215 135l232 -135l13 16l-234 243h-21z" />
<glyph unicode="&#xfc;" horiz-adv-x="1433" d="M82 1208v21h389v-21h-31q-41 0 -69 -25t-29 -63v-664q0 -200 101.5 -314.5t277.5 -114.5q194 0 305.5 108.5t112.5 297.5v688q-1 37 -30 62t-69 25h-30v21h352v-21h-30q-40 0 -68.5 -24.5t-29.5 -61.5v-689q0 -214 -137 -338t-374 -124t-374.5 123t-137.5 336v690 q-1 38 -29.5 63t-69.5 25h-30zM445 1440q0 33 23.5 56.5t56.5 23.5t56.5 -23.5t23.5 -56.5t-23.5 -56.5t-56.5 -23.5t-56.5 23.5t-23.5 56.5zM831 1440q0 33 23.5 56.5t56.5 23.5t56.5 -23.5t23.5 -56.5t-23.5 -56.5t-56.5 -23.5t-56.5 23.5t-23.5 56.5z" />
<glyph unicode="&#xfd;" horiz-adv-x="1310" d="M-10 1208v21h475v-21h-24q-41 0 -62 -30.5t-8 -66.5l298 -531l318 528q16 38 -6 69t-64 31h-24v21h429v-21h-26q-55 0 -105.5 -29.5t-82.5 -74.5l-393 -596v-376q1 -47 35.5 -79.5t83.5 -32.5h23l1 -20h-419v20h24q49 0 83.5 32.5t35.5 79.5v379l-380 594 q-69 103 -187 103h-25zM668 1374q165 177 261 268q52 -52 83 -108q-137 -80 -329 -174z" />
<glyph unicode="&#xfe;" horiz-adv-x="1079" d="M109 0l1 20h26q45 0 76 32t33 78v971q-1 46 -32 76.5t-77 30.5h-26l-1 21h403l-1 -21h-26q-46 0 -76.5 -29.5t-32.5 -74.5v-130h205q200 0 313 -94t113 -257q0 -91 -31 -165.5t-84.5 -120t-121.5 -67.5t-146.5 -12.5t-154.5 49.5v19q6 -2 17 -4.5t43 -5.5t63 -1t72 14 t74.5 34.5t65.5 66t51 103.5q13 42 13 111q0 125 -78.5 196.5t-215.5 71.5h-198v-782q2 -46 33.5 -78t76.5 -32h25l1 -20h-403z" />
<glyph unicode="&#xff;" horiz-adv-x="1310" d="M-10 1208v21h475v-21h-24q-41 0 -62 -30.5t-8 -66.5l298 -531l318 528q16 38 -6 69t-64 31h-24v21h429v-21h-26q-55 0 -105.5 -29.5t-82.5 -74.5l-393 -596v-377q1 -46 35.5 -78.5t83.5 -32.5h23l1 -20h-419v20h24q49 0 83.5 32.5t35.5 78.5v380l-380 594 q-69 103 -187 103h-25zM410 1440q0 33 23.5 56.5t56.5 23.5t56.5 -23.5t23.5 -56.5t-23.5 -56.5t-56.5 -23.5t-56.5 23.5t-23.5 56.5zM796 1440q0 33 23.5 56.5t56.5 23.5t56.5 -23.5t23.5 -56.5t-23.5 -56.5t-56.5 -23.5t-56.5 23.5t-23.5 56.5z" />
<glyph unicode="&#x152;" horiz-adv-x="1970" d="M123 717q0 335 199.5 540t526.5 205q111 0 230 -17q73 -11 137 -11h324q64 1 139.5 12.5t105.5 24.5v-37v-222l-25 1v36q0 49 -33.5 84t-81.5 38h-421v-633h354q41 1 70 30.5t29 70.5v30h20v-324h-20v30q0 41 -28.5 70.5t-68.5 30.5h-356v-613h301q79 0 139 19 t101.5 57.5t69.5 83t54 108.5h21l-120 -331h-566h-4q-52 0 -110 -4q-12 -1 -115 -13t-146 -12q-327 0 -526.5 205.5t-199.5 540.5zM270 717q0 -308 159.5 -496t419.5 -188q93 0 171.5 26t78.5 72v1171q0 36 -41.5 59t-94.5 31.5t-114 8.5q-260 0 -419.5 -188t-159.5 -496z " />
<glyph unicode="&#x153;" horiz-adv-x="1812" d="M102 614q0 297 175.5 470t468.5 173q87 0 206 -17q73 -11 137 -11h332q55 1 120.5 11t91.5 21v-232h-21v32q0 44 -27.5 74t-72.5 31h-415v-522h347q40 1 60.5 25t20.5 61v26l20 1v-288h-20v26q0 37 -21 61.5t-60 25.5h-347v-519h322q66 1 115.5 17.5t84 50t57.5 71 t45 92.5h21l-103 -294h-542h-4q-52 0 -110 -4q-13 -1 -103.5 -13t-133.5 -12q-293 0 -468.5 173t-175.5 470zM247 614q0 -268 137.5 -425.5t361.5 -157.5q89 0 157.5 27.5t68.5 74.5v964q0 52 -66.5 76.5t-159.5 24.5q-224 0 -361.5 -158t-137.5 -426z" />
<glyph unicode="&#x178;" horiz-adv-x="1353" d="M-20 1413v21h503v-21h-26q-45 0 -69 -42t-2 -85l307 -573l326 573l1 2q23 42 -3.5 83.5t-69.5 41.5h-26v21h455v-21h-29q-60 0 -115 -34t-91 -85l-404 -654v-491q1 -53 39 -91t92 -38h26v-20h-448v20h26q53 0 91 37.5t40 90.5v494l-390 652q-32 50 -88 84.5t-118 34.5 h-27zM424 1645q0 33 23.5 56.5t56.5 23.5t56.5 -23.5t23.5 -56.5t-23.5 -56.5t-56.5 -23.5t-56.5 23.5t-23.5 56.5zM809 1645q0 33 23.5 56.5t56.5 23.5t56.5 -23.5t23.5 -56.5t-23.5 -56.5t-56.5 -23.5t-56.5 23.5t-23.5 56.5z" />
<glyph unicode="&#x2c6;" horiz-adv-x="1228" d="M340 1509l12 -16l214 135l233 -135l12 16l-234 244h-20z" />
<glyph unicode="&#x2dc;" horiz-adv-x="1228" d="M332 1440h21q33 83 111 83q30 0 114.5 -45t131.5 -45q53 0 89 43t45 118h-20q-27 -68 -114 -68q-32 0 -114.5 43.5t-131.5 43.5q-50 0 -85.5 -46t-46.5 -127z" />
<glyph unicode="&#x2000;" horiz-adv-x="923" />
<glyph unicode="&#x2001;" horiz-adv-x="1847" />
<glyph unicode="&#x2002;" horiz-adv-x="923" />
<glyph unicode="&#x2003;" horiz-adv-x="1847" />
<glyph unicode="&#x2004;" horiz-adv-x="615" />
<glyph unicode="&#x2005;" horiz-adv-x="461" />
<glyph unicode="&#x2006;" horiz-adv-x="307" />
<glyph unicode="&#x2007;" horiz-adv-x="307" />
<glyph unicode="&#x2008;" horiz-adv-x="230" />
<glyph unicode="&#x2009;" horiz-adv-x="369" />
<glyph unicode="&#x200a;" horiz-adv-x="102" />
<glyph unicode="&#x2010;" horiz-adv-x="778" d="M70 597l12 46h614l13 -46l-13 -46h-614z" />
<glyph unicode="&#x2011;" horiz-adv-x="778" d="M70 597l12 46h614l13 -46l-13 -46h-614z" />
<glyph unicode="&#x2012;" horiz-adv-x="778" d="M70 597l12 46h614l13 -46l-13 -46h-614z" />
<glyph unicode="&#x2013;" horiz-adv-x="1024" d="M0 555v82h1024v-82h-1024z" />
<glyph unicode="&#x2014;" horiz-adv-x="1638" d="M0 555v82h1638v-82h-1638z" />
<glyph unicode="&#x2018;" horiz-adv-x="409" d="M104.5 1439.5q18.5 71.5 75 117.5t127.5 48l5 -18q-47 -15 -72 -42.5t-28 -57t4.5 -56t22.5 -44.5q4 -5 15 -17t16.5 -19t13 -19.5t10 -22t2 -23t-6.5 -26.5q-14 -31 -47.5 -42.5t-69 5t-53.5 58.5q-33 87 -14.5 158.5z" />
<glyph unicode="&#x2019;" horiz-adv-x="409" d="M103 1241q44 14 68.5 40.5t27 54.5t-5 53t-21.5 42q-3 4 -14 16t-15.5 18t-12 18.5t-9.5 21.5t-2 21.5t6 25.5q13 30 45 41t66 -4.5t51 -55.5q48 -116 -12.5 -211t-166.5 -98z" />
<glyph unicode="&#x201a;" horiz-adv-x="409" d="M98 -182q47 15 72 42.5t28 57t-4.5 56t-22.5 44.5q-4 5 -15 17t-16.5 19t-13 19.5t-10 22t-2 23t6.5 26.5q14 31 47.5 42.5t69 -4.5t53.5 -58q33 -87 14.5 -158.5t-75 -117.5t-127.5 -48z" />
<glyph unicode="&#x201c;" horiz-adv-x="696" d="M104.5 1439.5q18.5 71.5 75 117.5t127.5 48l5 -18q-47 -15 -72 -42.5t-28 -57t4.5 -56t22.5 -44.5q4 -5 15 -17t16.5 -19t13 -19.5t10 -22t2 -23t-6.5 -26.5q-14 -31 -47.5 -42.5t-69 5t-53.5 58.5q-33 87 -14.5 158.5zM390.5 1439.5q18.5 71.5 75.5 117.5t128 48l5 -18 q-47 -15 -72 -42.5t-28 -57t4.5 -56t22.5 -44.5q4 -5 15 -17t16.5 -19t13 -19.5t10 -22t2 -23t-6.5 -26.5q-14 -31 -47.5 -42.5t-69.5 5t-54 58.5q-33 87 -14.5 158.5z" />
<glyph unicode="&#x201d;" horiz-adv-x="696" d="M103 1241q44 14 68.5 40.5t27 54.5t-5 53t-21.5 42q-3 4 -14 16t-15.5 18t-12 18.5t-9.5 21.5t-2 21.5t6 25.5q13 30 45 41t66 -4.5t51 -55.5q48 -116 -12.5 -211t-166.5 -98zM389 1241q44 14 68.5 40.5t27 54.5t-4.5 53t-21 42q-3 4 -14 16t-15.5 18t-12 18.5t-9.5 21.5 t-2 21.5t6 25.5q13 30 45 41t66 -4.5t51 -55.5q48 -116 -13 -211t-167 -98z" />
<glyph unicode="&#x201e;" horiz-adv-x="696" d="M92 -190q49 16 76 44.5t29.5 59.5t-5 58t-23.5 47q-1 2 -18.5 21t-21.5 26t-12.5 24t-7.5 31.5t8 31.5q14 33 49 44.5t73 -5.5t56 -61q34 -91 15 -166t-78 -123.5t-134 -50.5zM363 -190q49 16 76 44.5t29.5 59.5t-5 58t-23.5 47q-4 5 -15.5 18t-17.5 20t-14 20.5 t-10.5 23.5t-2 24t6.5 28q14 33 49.5 44.5t73.5 -5.5t56 -61q34 -91 14.5 -166t-78.5 -123.5t-134 -50.5z" />
<glyph unicode="&#x2022;" horiz-adv-x="686" d="M148 654q-10 28 0 55q29 89 54.5 114t113.5 54q28 10 56 0q88 -29 113.5 -54t54.5 -114q9 -24 -2 -59q-28 -86 -53 -110.5t-113 -53.5q-28 -10 -56 0q-88 29 -113.5 54.5t-54.5 113.5z" />
<glyph unicode="&#x2026;" horiz-adv-x="1167" d="M92 84q0 38 27 65t65 27t65 -27t27 -65t-27 -65t-65 -27t-65 27t-27 65zM502 84q0 38 27 65t65 27t65 -27t27 -65t-27 -65t-65 -27t-65 27t-27 65zM891 84q0 38 27 65t65 27t65 -27t27 -65t-27 -65t-65 -27t-65 27t-27 65z" />
<glyph unicode="&#x202f;" horiz-adv-x="369" />
<glyph unicode="&#x2039;" horiz-adv-x="579" d="M82 598l358 -414l18 10l-243 404l241 395l-16 10z" />
<glyph unicode="&#x203a;" horiz-adv-x="579" d="M123 194l18 -10l358 414l-358 405l-16 -10l241 -395z" />
<glyph unicode="&#x205f;" horiz-adv-x="461" />
<glyph unicode="&#x20ac;" horiz-adv-x="1501" d="M-20 581l21 61h199q-4 48 -4 75q0 35 3 69h-219l21 61h206q30 175 134 315t263 220t344 80q348 0 449 -121l-67 -197h-20q14 63 -5.5 111.5t-57.5 75t-94 43.5t-104.5 22t-100.5 5q-221 0 -385 -156.5t-203 -397.5h871l-22 -61h-857q-2 -22 -2 -67q0 -39 3 -77h806 l-21 -61h-777q41 -238 204.5 -392t382.5 -154q193 0 297.5 66t133.5 214h21l-3 -215q-62 -63 -185.5 -95t-263.5 -32q-278 0 -485 172t-255 436h-228z" />
<glyph unicode="&#x2122;" horiz-adv-x="913" d="M20 1360v84q22 -10 70 -10h194q48 0 70 10v-84h-6v10q0 13 -9.5 23t-23.5 11h-97v-333q1 -15 11.5 -25t25.5 -10h8v-6h-151v6h7q15 0 25.5 10t11.5 25v333h-97q-14 -1 -23.5 -11t-9.5 -23v-10h-6zM357 1030v6h9q37 0 42 36l44 369h5l170 -318l148 318h5l63 -369 q8 -36 42 -36h9v-6h-145v5h9q9 0 16 8t6 17l-37 249l-108 -228q-16 -35 -20 -59h-5l-142 275l-17 -237q0 -9 6.5 -17t15.5 -8h9v-5h-125z" />
<glyph unicode="&#x25fc;" horiz-adv-x="1228" d="M0 0v1229h1229v-1229h-1229z" />
<glyph unicode="&#xfb01;" horiz-adv-x="1759" d="M113 0v20h29q49 0 83 31.5t36 77.5v972q-2 46 -35.5 76.5t-83.5 30.5h-29v21h279h325q60 1 132 11t100 21v-232h-23v32q0 44 -28.5 74t-74.5 31h-431v-521h355q41 1 62 25.5t21 61.5v26h23v-287h-23v26q0 37 -19.5 61t-58.5 26h-360v-453q2 -46 36 -78.5t84 -32.5h28 l1 -20h-428zM1184 0v20h27q57 0 97.5 32.5t42.5 78.5v966q-1 46 -42 78.5t-98 32.5h-27v21h464v-21h-28q-55 0 -95.5 -31t-43.5 -76v-971q1 -46 42 -78t97 -32h27l1 -20h-464z" />
<glyph unicode="&#xfb02;" horiz-adv-x="2168" d="M113 0v20h29q49 0 83 31.5t36 77.5v972q-2 46 -35.5 76.5t-83.5 30.5h-29v21h279h325q60 1 132 11t100 21v-232h-23v32q0 44 -28.5 74t-74.5 31h-431v-521h355q41 1 62 25.5t21 61.5v26h23v-287h-23v26q0 37 -19.5 61t-58.5 26h-360v-453q2 -46 36 -78.5t84 -32.5h28 l1 -20h-428zM1184 0v20h28q49 0 83 32t36 77v968q-1 46 -37 78.5t-86 32.5h-24v21h424v-21h-24q-50 0 -86 -32t-37 -78v-1035h321q72 1 125 17.5t90.5 50t61.5 70.5t48 93h22l-113 -294h-832z" />
</font>
</defs>
</svg>
